<svg xmlns="http://www.w3.org/2000/svg"><defs><font id="primeicons" horiz-adv-x="1024"><font-face ascent="960" descent="-64" units-per-em="1024"/><glyph horiz-adv-x="512"/><glyph d="M679.213-32.738h-.292c-17.22 0-32.796 7.035-44.013 18.388L216.869 403.689c-11.33 11.344-18.339 27.01-18.339 44.311s7.007 32.967 18.339 44.313l418.033 418.033a62.455 62.455 0 0 0 42.747 16.828c34.631 0 62.705-28.074 62.705-62.705 0-16.538-6.402-31.58-16.864-42.785l.034.037-373.722-373.722L723.524 74.277c11.33-11.344 18.339-27.01 18.339-44.311s-7.007-32.967-18.339-44.313c-11.222-11.36-26.798-18.394-44.019-18.394h-.307.016z" data-tags="chevron-left" glyph-name="chevron-left" unicode=""/><glyph d="M344.779-32.761h-.292c-17.221 0-32.798 7.035-44.016 18.389l-.006.006c-11.331 11.345-18.34 27.011-18.34 44.313s7.008 32.969 18.34 44.315l373.739 373.739L300.465 821.74a62.459 62.459 0 0 0-16.829 42.749c0 34.632 28.075 62.708 62.708 62.708 16.539 0 31.582-6.402 42.787-16.865l-.037.034 418.053-418.053c11.331-11.345 18.34-27.011 18.34-44.313s-7.008-32.969-18.34-44.315L389.094-14.368c-11.223-11.36-26.8-18.395-44.021-18.395h-.307.016z" data-tags="chevron-right" glyph-name="chevron-right" unicode=""/><glyph d="M512 185.734h-.282c-16.621 0-31.655 6.79-42.481 17.748l-403.49 403.49c-6.608 9.557-10.557 21.395-10.557 34.153 0 33.426 27.098 60.522 60.522 60.522 13.37 0 25.728-4.335 35.742-11.677l-.17.119 360.715-358.295 360.715 358.295c9.294 6.106 20.686 9.741 32.927 9.741 33.426 0 60.522-27.098 60.522-60.522 0-11.002-2.935-21.318-8.065-30.207l.155.294L554.768 205.91c-10.561-11.928-25.717-19.583-42.668-20.171l-.102-.002z" data-tags="chevron-down" glyph-name="chevron-down" unicode=""/><glyph d="M912.529 187.655h-.279c-16.5 0-31.424 6.74-42.17 17.619L512.001 563.353 153.927 207.682c-9.226-6.061-20.534-9.669-32.685-9.669-33.181 0-60.08 26.899-60.08 60.08 0 10.921 2.914 21.161 8.005 29.985l-.154-.291 400.529 400.529c10.869 10.856 25.879 17.571 42.456 17.571s31.587-6.714 42.457-17.571l400.529-400.529c10.856-10.869 17.571-25.879 17.571-42.456s-6.714-31.587-17.571-42.457c-10.467-9.481-24.421-15.283-39.728-15.283-.96 0-1.913.022-2.862.068l.134-.005z" data-tags="chevron-up" glyph-name="chevron-up" unicode=""/><glyph d="M777.445.063h-.22a48.88 48.88 0 0 0-29.759 10.044l.119-.088-530.888 398.166c-12.143 9.177-19.908 23.59-19.908 39.817s7.765 30.639 19.784 39.726l.124.091 530.888 398.166c8.229 6.251 18.645 10.014 29.941 10.014a49.56 49.56 0 0 0 22.762-5.498l-.278.131c16.203-8.535 27.088-25.214 27.208-44.445V49.837c-.121-19.249-11.006-35.927-26.932-44.329l-.275-.133c-6.602-3.186-14.334-5.125-22.5-5.309l-.063-.002zM329.508 448l398.166-298.625v597.249z" data-tags="caret-left" glyph-name="caret-left" unicode=""/><glyph d="M246.514-.008c-8.001.105-15.52 2.052-22.189 5.441l.287-.133c-16.574 8.253-27.783 25.04-27.876 44.458v796.469c.092 19.426 11.302 36.213 27.587 44.339l.287.132c6.449 3.33 14.077 5.284 22.158 5.284a48.886 48.886 0 0 0 29.729-10.017l-.119.089L807.35 487.826c12.145-9.177 19.912-23.594 19.912-39.823s-7.766-30.645-19.789-39.733l-.124-.091L276.377 9.951c-8.14-6.214-18.456-9.957-29.645-9.957h-.232.012zm49.778 746.68V149.329L694.52 448.001z" data-tags="caret-right" glyph-name="caret-right" unicode=""/><glyph d="m512 151.758-.311-.002c-15.157 0-28.607 7.307-37.02 18.589l-.088.122-374.2 498.935c-5.874 7.735-9.411 17.522-9.411 28.14a46.563 46.563 0 0 0 5.168 21.391l-.124-.263c8.022 15.226 23.696 25.457 41.77 25.57h748.419c18.091-.116 33.765-10.344 41.662-25.311l.125-.259c3.18-6.151 5.044-13.42 5.044-21.131a46.575 46.575 0 0 0-9.494-28.255l.085.116-374.2-498.935c-8.503-11.404-21.951-18.712-37.108-18.712-.109 0-.218 0-.329.002h.017zM231.349 650.693 512 276.493l280.651 374.2z" data-tags="caret-down" glyph-name="caret-down" unicode=""/><glyph d="M886.087 151.847H137.912c-18.084.115-33.754 10.339-41.649 25.303l-.125.259c-3.18 6.148-5.042 13.416-5.042 21.125 0 10.612 3.535 20.4 9.492 28.247l-.085-.116L474.59 725.447c8.871 10.966 22.328 17.919 37.409 17.919s28.537-6.953 37.338-17.828l.069-.09 374.087-498.782c5.874-7.732 9.407-17.518 9.407-28.131a46.572 46.572 0 0 0-5.165-21.386l.123.262c-8.019-15.222-23.689-25.45-41.757-25.562h-.016zm-654.651 93.522h561.131L512.003 619.456z" data-tags="caret-up" glyph-name="caret-up" unicode=""/><glyph d="M440.071 79.585C196.876 79.585-.273 276.734-.273 519.929s197.149 440.344 440.344 440.344 440.344-197.149 440.344-440.344S683.266 79.585 440.071 79.585zm0 792.384c-193.781 0-350.872-157.09-350.872-350.872s157.09-350.872 350.872-350.872c193.781 0 350.872 157.09 350.872 350.872 0 193.781-157.09 350.872-350.872 350.872zM979.828-63.687h-.204c-12.045 0-22.94 4.92-30.785 12.862l-241.52 241.52a43.685 43.685 0 0 0-11.771 29.899c0 24.222 19.636 43.859 43.859 43.859 11.568 0 22.088-4.478 29.926-11.795l-.026.023 241.516-241.516c7.925-7.934 12.827-18.892 12.827-30.993s-4.901-23.059-12.827-30.995c-7.849-7.945-18.744-12.866-30.789-12.866h-.215.011z" data-tags="search" glyph-name="search" unicode=""/><glyph d="M367.973 82.291c-12.364.429-23.354 5.979-30.973 14.583l-.039.045L44.392 389.488c-12.118 7.943-20.011 21.462-20.011 36.822 0 24.237 19.649 43.886 43.886 43.886 16.258 0 30.454-8.843 38.038-21.983l.112-.213 261.556-259.802L980.61 799.082c6.739 4.429 14.999 7.063 23.874 7.063 24.237 0 43.886-19.649 43.886-43.886a43.692 43.692 0 0 0-5.848-21.903l.112.213L398.983 96.918c-7.658-8.649-18.646-14.2-30.94-14.626l-.073-.001z" data-tags="check" glyph-name="check" horiz-adv-x="1088" unicode=""/><glyph d="M426.842 263.49c-11.361.894-21.337 6.182-28.346 14.147l-.04.047-170.317 170.317c-2.623 5.368-4.157 11.68-4.157 18.35 0 23.516 19.064 42.579 42.579 42.579 6.67 0 12.983-1.534 18.603-4.269l-.253.11 140.228-140.228 484.268 480.861c5.368 2.623 11.68 4.157 18.35 4.157 23.516 0 42.579-19.064 42.579-42.579 0-6.67-1.534-12.983-4.269-18.603l.11.253-510.95-510.95c-7.048-8.01-17.025-13.299-28.241-14.184l-.146-.009zM512-62.95c-191.476.317-358.217 105.908-445.47 261.972l-1.328 2.587c-31.938 55.832-53.595 121.525-60.581 191.54l-.166 2.053c-1.75 15.87-2.746 34.274-2.746 52.91 0 191.528 105.381 358.444 261.324 445.927l2.575 1.327c55.832 31.938 121.525 53.595 191.54 60.581l2.053.166c16.139 1.838 34.846 2.885 53.796 2.885 52.724 0 103.554-8.111 151.308-23.156l-3.563.969c19.66-4.032 34.236-21.19 34.236-41.754 0-23.516-19.064-42.579-42.579-42.579a42.47 42.47 0 0 0-16.352 3.253l.282-.104c-37.278 11.625-80.141 18.322-124.567 18.322a437.13 437.13 0 0 1-47.685-2.599l1.933.172c-60.018-6.3-114.675-24.271-163.354-51.622l2.121 1.095c-49.065-27.393-90.495-62.305-124.293-103.695l-.607-.765c-59.499-72.093-95.584-165.431-95.584-267.195 0-16.071.899-31.933 2.652-47.536l-.174 1.916c6.3-60.018 24.271-114.675 51.622-163.354l-1.095 2.121c27.393-49.065 62.305-90.495 103.695-124.293l.765-.607c72.093-59.499 165.431-95.584 267.195-95.584 16.071 0 31.933.899 47.536 2.652l-1.916-.174c60.018 6.3 114.675 24.271 163.354 51.622l-2.121-1.095c49.065 27.393 90.495 62.305 124.293 103.695l.607.765c59.499 72.093 95.584 165.431 95.584 267.195 0 16.071-.899 31.933-2.652 47.536l.174-1.916a43.363 43.363 0 0 0-.204 4.258c0 24.725 20.044 44.769 44.769 44.769 23.226 0 42.321-17.686 44.551-40.326l.015-.185c1.73-15.781 2.716-34.082 2.716-52.613 0-191.743-105.619-358.82-261.851-446.222L761.224.636C704.713-32.626 638.08-55.276 566.928-62.767l-2.137-.182h-52.798z" data-tags="check-circle" glyph-name="check-circle" unicode=""/><glyph d="m586.932 448 312.455 312.455c10.394 9.708 16.875 23.488 16.875 38.79 0 29.283-23.737 53.02-53.02 53.02-15.299 0-29.084-6.481-38.759-16.841l-.027-.029L512.001 522.94 199.546 835.395a52.81 52.81 0 0 1-36.145 14.228c-29.283 0-53.02-23.737-53.02-53.02 0-13.985 5.412-26.701 14.261-36.174l-.027.029L437.07 448.003 124.615 135.548c-9.582-9.589-15.504-22.839-15.504-37.468s5.926-27.874 15.504-37.469c9.589-9.582 22.839-15.504 37.468-15.504s27.874 5.926 37.469 15.504l312.455 312.455L824.462 60.611c9.589-9.582 22.839-15.504 37.468-15.504s27.874 5.926 37.469 15.504c9.582 9.589 15.504 22.839 15.504 37.468s-5.926 27.874-15.504 37.469z" data-tags="times" glyph-name="times" unicode=""/><glyph d="M512-64C229.231-64 0 165.231 0 448s229.231 512 512 512 512-229.231 512-512S794.769-64 512-64zm0 938.667C276.359 874.667 85.333 683.642 85.333 448S276.358 21.333 512 21.333c235.641 0 426.667 191.025 426.667 426.667 0 235.641-191.025 426.667-426.667 426.667zm-170.667-640h-.199c-11.717 0-22.316 4.787-29.948 12.512l-.004.004c-7.709 7.719-12.479 18.379-12.479 30.151s4.768 22.432 12.479 30.152l341.333 341.333a42.498 42.498 0 0 0 29.087 11.451c23.564 0 42.667-19.103 42.667-42.667 0-11.253-4.356-21.488-11.475-29.112l.023.025-341.333-341.333c-7.636-7.729-18.235-12.516-29.952-12.516h-.209.011zm341.334 0h-.199c-11.717 0-22.316 4.787-29.948 12.512L311.183 588.516a42.498 42.498 0 0 0-11.451 29.087c0 23.564 19.103 42.667 42.667 42.667 11.253 0 21.488-4.356 29.112-11.475l-.025.023 341.333-341.333c7.709-7.719 12.479-18.379 12.479-30.151s-4.768-22.432-12.479-30.152c-7.636-7.729-18.235-12.516-29.952-12.516h-.209.011z" data-tags="times-circle" glyph-name="times-circle" unicode=""/><glyph d="M559.485 495.485V891.18c0 26.223-21.257 47.485-47.485 47.485s-47.485-21.257-47.485-47.485V495.485H68.82c-26.223 0-47.485-21.257-47.485-47.485s21.257-47.485 47.485-47.485h395.695V4.82c.352-26.082 21.403-47.133 47.447-47.485h.033c26.223 0 47.485 21.257 47.485 47.485v395.695h395.695c26.223 0 47.485 21.257 47.485 47.485-.352 26.082-21.403 47.133-47.447 47.485h-.033z" data-tags="plus" glyph-name="plus" unicode=""/><glyph d="M512-64C229.231-64 0 165.231 0 448s229.231 512 512 512 512-229.231 512-512S794.769-64 512-64zm0 938.667C276.359 874.667 85.333 683.642 85.333 448S276.358 21.333 512 21.333c235.641 0 426.667 191.025 426.667 426.667 0 235.641-191.025 426.667-426.667 426.667zm0-696.89c-23.436.316-42.351 19.231-42.667 42.636v455.141c0 23.564 19.103 42.667 42.667 42.667s42.667-19.103 42.667-42.667V220.443c-.316-23.436-19.231-42.351-42.636-42.667H512zm227.556 227.556H284.445c-23.564 0-42.667 19.103-42.667 42.667s19.103 42.667 42.667 42.667h455.111c23.564 0 42.667-19.103 42.667-42.667s-19.103-42.667-42.667-42.667z" data-tags="plus-circle" glyph-name="plus-circle" unicode=""/><glyph d="M967.085 391.114H56.914C25.497 391.114.028 416.583.028 448s25.469 56.886 56.886 56.886h910.171c31.417 0 56.886-25.469 56.886-56.886s-25.469-56.886-56.886-56.886z" data-tags="minus" glyph-name="minus" unicode=""/><glyph d="M512-64C229.231-64 0 165.231 0 448s229.231 512 512 512 512-229.231 512-512S794.769-64 512-64zm0 938.667C276.359 874.667 85.333 683.642 85.333 448S276.358 21.333 512 21.333c235.641 0 426.667 191.025 426.667 426.667 0 235.641-191.025 426.667-426.667 426.667zm227.556-469.334H284.445c-23.564 0-42.667 19.103-42.667 42.667s19.103 42.667 42.667 42.667h455.111c23.564 0 42.667-19.103 42.667-42.667s-19.103-42.667-42.667-42.667z" data-tags="minus-circle" glyph-name="minus-circle" unicode=""/><glyph d="M1024 448c0-282.769-229.231-512-512-512S0 165.231 0 448s229.231 512 512 512 512-229.231 512-512z" data-tags="circle-on, deprecate" glyph-name="circle-on" unicode=""/><glyph d="M512-64C229.231-64 0 165.231 0 448s229.231 512 512 512 512-229.231 512-512S794.769-64 512-64zm0 938.667C276.359 874.667 85.333 683.642 85.333 448S276.358 21.333 512 21.333c235.641 0 426.667 191.025 426.667 426.667 0 235.641-191.025 426.667-426.667 426.667z" data-tags="circle-off, deprecate" glyph-name="circle-off" unicode=""/><glyph d="M512 198.703h-.206c-12.08 0-23.01 4.935-30.879 12.901L70.302 622.217c-7.95 7.958-12.867 18.951-12.867 31.089 0 24.283 19.676 43.971 43.952 43.993h821.216c23.565-.924 42.321-20.252 42.321-43.961 0-11.301-4.262-21.608-11.268-29.401l.035.04L543.084 213.37c-7.678-8.671-18.694-14.235-31.015-14.662l-.074-.003zM207.563 609.309 512 304.872l304.437 304.437z" data-tags="sort-down" glyph-name="sort-down" unicode=""/><glyph d="M921.888 199.141H102.115l-.294-.002c-18.019 0-33.47 11-40.004 26.651l-.105.287c-1.856 4.68-2.932 10.103-2.932 15.777 0 11.845 4.689 22.595 12.313 30.495l409.875 409.875c7.945 7.935 18.917 12.844 31.034 12.844s23.089-4.908 31.035-12.844l409.888-409.888c7.91-7.94 12.801-18.896 12.801-30.993a43.773 43.773 0 0 0-3.542-17.308l.108.285c-7.032-14.993-22.001-25.192-39.352-25.192-.369 0-.739.004-1.106.013l.055-.002zm-713.789 87.832h607.804L512.002 590.874z" data-tags="sort-up" glyph-name="sort-up" unicode=""/><glyph d="M841.149 516.572H182.851l-.275-.001c-16.883 0-31.357 10.305-37.478 24.968l-.099.269c-2.034 4.708-3.217 10.189-3.217 15.949 0 11.333 4.583 21.597 11.994 29.037l329.147 329.147c7.443 7.433 17.723 12.033 29.075 12.033s21.632-4.598 29.076-12.033l329.149-329.149c7.411-7.439 11.993-17.704 11.993-29.036 0-5.757-1.183-11.24-3.319-16.216l.101.267c-6.22-14.932-20.695-25.236-37.577-25.236l-.29.001h.015zm-559.004 82.287h459.712L512.002 828.714zM512-32.009h-.191c-11.299 0-21.519 4.615-28.879 12.065L153.777 309.209c-7.411 7.439-11.993 17.704-11.993 29.036 0 5.757 1.183 11.24 3.319 16.216l-.101-.267c6.22 14.932 20.695 25.236 37.577 25.236l.29-.001h658.283l.275.001c16.883 0 31.357-10.305 37.478-24.968l.099-.269c2.034-4.708 3.217-10.189 3.217-15.949 0-11.333-4.583-21.597-11.994-29.037L541.08-19.94c-7.363-7.453-17.584-12.068-28.883-12.068h-.202.01zm-229.855 329.15L512 67.286l229.855 229.855z" data-tags="sort" glyph-name="sort" unicode=""/><glyph d="M776.253-63.989c-13.652.164-25.983 5.679-35.022 14.542L278.797 412.987c-8.953 8.963-14.491 21.342-14.491 35.013s5.537 26.049 14.491 35.014l462.442 462.442c8.959 8.925 21.319 14.443 34.966 14.443a49.403 49.403 0 0 0 19.529-3.996l-.322.122c17.981-7.491 30.389-24.922 30.389-45.252 0-.116 0-.233-.002-.348v.019-924.882l.002-.331c0-20.33-12.41-37.761-30.067-45.132l-.324-.119c-5.648-2.471-12.229-3.927-19.143-3.964h-.014zM383.839 448l342.867-342.867v685.734zM247.747-63.989c-27.215.367-49.181 22.332-49.548 49.511v924.917c0 27.364 22.183 49.548 49.548 49.548s49.548-22.183 49.548-49.548V-14.443c-.367-27.215-22.332-49.181-49.511-49.548h-.036z" data-tags="step-backward" glyph-name="step-backward" unicode=""/><glyph d="M247.747-63.989a49.402 49.402 0 0 0-19.478 4.087l.321-.124c-17.981 7.491-30.389 24.922-30.389 45.252 0 .116 0 .231.002.348v-.019 924.882l-.002.331c0 20.33 12.41 37.761 30.067 45.132l.324.119c5.67 2.449 12.271 3.874 19.206 3.874 13.649 0 26.007-5.518 34.967-14.444l462.441-462.441c8.953-8.963 14.491-21.342 14.491-35.013s-5.537-26.049-14.491-35.014L282.764-49.461c-9.03-8.855-21.362-14.37-34.982-14.533h-.031zm49.548 854.856V105.133L640.162 448zM776.253-63.989c-27.215.367-49.181 22.332-49.548 49.511v924.917c0 27.364 22.183 49.548 49.548 49.548s49.548-22.183 49.548-49.548V-14.443c-.367-27.215-22.332-49.181-49.513-49.548h-.036z" data-tags="step-forward" glyph-name="step-forward" unicode=""/><glyph d="M325.818 494.545H139.636C62.517 494.545 0 557.063 0 634.181v186.182c0 77.119 62.518 139.636 139.636 139.636h186.182c77.119 0 139.636-62.518 139.636-139.636V634.181c0-77.119-62.518-139.636-139.636-139.636zM139.636 866.909c-25.567-.345-46.201-20.979-46.545-46.512V634.182c.345-25.567 20.979-46.201 46.512-46.545h186.215c25.567.345 46.201 20.979 46.545 46.512v186.215c-.345 25.567-20.979 46.201-46.512 46.545h-.033zM325.818-64H139.636C62.517-64 0-1.482 0 75.636v186.182c0 77.119 62.518 139.636 139.636 139.636h186.182c77.119 0 139.636-62.518 139.636-139.636V75.636C465.454-1.483 402.936-64 325.818-64zM139.636 308.364c-25.567-.345-46.201-20.979-46.545-46.512V75.637c.345-25.567 20.979-46.201 46.512-46.545h186.215c25.567.345 46.201 20.979 46.545 46.512v186.215c-.345 25.567-20.979 46.201-46.512 46.545h-.033zm744.728 186.181H698.182c-77.119 0-139.636 62.518-139.636 139.636v186.182c0 77.119 62.518 139.636 139.636 139.636h186.182c77.119 0 139.636-62.518 139.636-139.636V634.181c0-77.119-62.518-139.636-139.636-139.636zM698.182 866.909c-25.567-.345-46.201-20.979-46.545-46.512V634.182c.345-25.567 20.979-46.201 46.512-46.545h186.215c25.567.345 46.201 20.979 46.545 46.512v186.215c-.345 25.567-20.979 46.201-46.512 46.545h-.033zM884.364-64H698.182C621.063-64 558.546-1.482 558.546 75.636v186.182c0 77.119 62.518 139.636 139.636 139.636h186.182c77.119 0 139.636-62.518 139.636-139.636V75.636C1024-1.483 961.482-64 884.364-64zM698.182 308.364c-25.567-.345-46.201-20.979-46.545-46.512V75.637c.345-25.567 20.979-46.201 46.512-46.545h186.215c25.567.345 46.201 20.979 46.545 46.512v186.215c-.345 25.567-20.979 46.201-46.512 46.545h-.033z" data-tags="th-large" glyph-name="th-large" unicode=""/><glyph d="M512-63.983h-.231c-13.607 0-25.914 5.559-34.777 14.53L80.614 346.925a49.35 49.35 0 0 0-13.297 33.777c0 27.364 22.183 49.547 49.547 49.547 13.068 0 24.953-5.058 33.806-13.325l-.029.026L512.002 55.589 873.363 416.95a49.35 49.35 0 0 0 33.777 13.297c27.364 0 49.547-22.183 49.547-49.547 0-13.068-5.058-24.953-13.325-33.806l.026.029L547.014-49.451c-8.867-8.976-21.175-14.534-34.782-14.534h-.243.012zm0 0c-27.215.367-49.18 22.332-49.547 49.511v924.907c0 27.364 22.183 49.547 49.547 49.547s49.547-22.183 49.547-49.547V-14.437c-.367-27.215-22.332-49.18-49.511-49.547H512z" data-tags="arrow-down" glyph-name="arrow-down" unicode=""/><glyph d="M445.937 2.079h-.231c-13.607 0-25.914 5.559-34.777 14.53L14.551 412.987C5.599 421.95.06 434.329.06 448s5.537 26.049 14.491 35.014l396.374 396.374a49.35 49.35 0 0 0 33.777 13.297c27.364 0 49.547-22.183 49.547-49.547 0-13.068-5.058-24.953-13.325-33.806l.026.029L119.589 448 480.95 86.639c8.952-8.963 14.491-21.342 14.491-35.013s-5.537-26.049-14.491-35.014c-8.867-8.976-21.175-14.534-34.782-14.534h-.243.012zm528.5 396.374H49.565C22.201 398.453.018 420.636.018 448s22.183 49.547 49.547 49.547h924.872c27.364 0 49.547-22.183 49.547-49.547s-22.183-49.547-49.547-49.547z" data-tags="arrow-left" glyph-name="arrow-left" unicode=""/><glyph d="M578.063 2.079h-.231c-13.607 0-25.914 5.559-34.777 14.53l-.005.005c-8.952 8.963-14.491 21.342-14.491 35.013s5.537 26.049 14.491 35.014l361.361 361.361L543.05 809.363a49.35 49.35 0 0 0-13.297 33.777c0 27.364 22.183 49.547 49.547 49.547 13.068 0 24.953-5.058 33.806-13.325l-.029.026 396.374-396.374c8.952-8.963 14.491-21.342 14.491-35.013s-5.537-26.049-14.491-35.014L613.077 16.613c-8.867-8.976-21.175-14.534-34.782-14.534h-.243.012zm396.374 396.374H49.565C22.201 398.453.018 420.636.018 448s22.183 49.547 49.547 49.547h924.872c27.364 0 49.547-22.183 49.547-49.547s-22.183-49.547-49.547-49.547z" data-tags="arrow-right" glyph-name="arrow-right" unicode=""/><glyph d="M908.374 464.516h-.231c-13.607 0-25.914 5.559-34.777 14.53L512 840.412 150.639 479.051a49.35 49.35 0 0 0-33.777-13.297c-27.364 0-49.547 22.183-49.547 49.547 0 13.068 5.058 24.953 13.325 33.806l-.026-.029 396.374 396.374c8.963 8.952 21.342 14.491 35.013 14.491s26.049-5.537 35.014-14.491l396.374-396.374c8.952-8.963 14.491-21.342 14.491-35.013s-5.537-26.049-14.491-35.014c-8.867-8.976-21.175-14.534-34.782-14.534h-.243.012zM512-63.983c-27.215.367-49.18 22.332-49.547 49.511v924.907c0 27.364 22.183 49.547 49.547 49.547s49.547-22.183 49.547-49.547V-14.437c-.367-27.215-22.332-49.18-49.511-49.547H512z" data-tags="arrow-up" glyph-name="arrow-up" unicode=""/><glyph d="M974.438 398.453H49.564C22.2 398.453.017 420.636.017 448s22.183 49.547 49.547 49.547h924.874c27.364 0 49.547-22.183 49.547-49.547s-22.183-49.547-49.547-49.547zm0 297.282H49.564C22.2 695.735.017 717.918.017 745.282s22.183 49.547 49.547 49.547h924.874c27.364 0 49.547-22.183 49.547-49.547s-22.183-49.547-49.547-49.547zm0-594.564H49.564C22.2 101.171.017 123.354.017 150.718s22.183 49.547 49.547 49.547h924.874c27.364 0 49.547-22.183 49.547-49.547s-22.183-49.547-49.547-49.547z" data-tags="bars" glyph-name="bars" unicode=""/><glyph d="M512-64C229.231-64 0 165.231 0 448s229.231 512 512 512 512-229.231 512-512S794.769-64 512-64zm0 938.667C276.359 874.667 85.333 683.642 85.333 448S276.358 21.333 512 21.333c235.641 0 426.667 191.025 426.667 426.667 0 235.641-191.025 426.667-426.667 426.667zm0-696.89h-.199c-11.717 0-22.316 4.787-29.948 12.512l-227.56 227.56a42.498 42.498 0 0 0-11.451 29.087c0 23.564 19.103 42.667 42.667 42.667 11.253 0 21.488-4.356 29.112-11.475l-.025.023L512 280.747l197.404 197.404a42.498 42.498 0 0 0 29.087 11.451c23.564 0 42.667-19.103 42.667-42.667 0-11.253-4.356-21.488-11.475-29.112l.023.025L542.15 190.292c-7.636-7.729-18.235-12.516-29.952-12.516h-.209.011zm0 0c-23.436.316-42.351 19.231-42.667 42.636v455.141c0 23.564 19.103 42.667 42.667 42.667s42.667-19.103 42.667-42.667V220.443c-.316-23.436-19.231-42.351-42.636-42.667H512z" data-tags="arrow-circle-down" glyph-name="arrow-circle-down" unicode=""/><glyph d="M512-64C229.231-64 0 165.231 0 448s229.231 512 512 512 512-229.231 512-512S794.769-64 512-64zm0 938.667C276.359 874.667 85.333 683.642 85.333 448S276.358 21.333 512 21.333c235.641 0 426.667 191.025 426.667 426.667 0 235.641-191.025 426.667-426.667 426.667zm0-696.89h-.199c-11.717 0-22.316 4.787-29.948 12.512l-227.56 227.56c-7.709 7.719-12.479 18.379-12.479 30.151s4.768 22.432 12.479 30.152l227.556 227.556a42.498 42.498 0 0 0 29.087 11.451c23.564 0 42.667-19.103 42.667-42.667 0-11.253-4.356-21.488-11.475-29.112l.023.025-197.404-197.404 197.404-197.404c7.709-7.719 12.479-18.379 12.479-30.151s-4.768-22.432-12.479-30.152c-7.636-7.729-18.235-12.516-29.952-12.516h-.209.011zm227.556 227.556H284.445c-23.564 0-42.667 19.103-42.667 42.667s19.103 42.667 42.667 42.667h455.111c23.564 0 42.667-19.103 42.667-42.667s-19.103-42.667-42.667-42.667z" data-tags="arrow-circle-left" glyph-name="arrow-circle-left" unicode=""/><glyph d="M512-64C229.231-64 0 165.231 0 448s229.231 512 512 512 512-229.231 512-512S794.769-64 512-64zm0 938.667C276.359 874.667 85.333 683.642 85.333 448S276.358 21.333 512 21.333c235.641 0 426.667 191.025 426.667 426.667 0 235.641-191.025 426.667-426.667 426.667zm0-696.89h-.199c-11.717 0-22.316 4.787-29.948 12.512l-.004.004c-7.709 7.719-12.479 18.379-12.479 30.151s4.768 22.432 12.479 30.152L679.253 448 481.849 645.404a42.498 42.498 0 0 0-11.451 29.087c0 23.564 19.103 42.667 42.667 42.667 11.253 0 21.488-4.356 29.112-11.475l-.025.023L769.708 478.15c7.709-7.719 12.479-18.379 12.479-30.151s-4.768-22.432-12.479-30.152L542.152 190.291c-7.636-7.729-18.235-12.516-29.952-12.516h-.209.011zm227.556 227.556H284.445c-23.564 0-42.667 19.103-42.667 42.667s19.103 42.667 42.667 42.667h455.111c23.564 0 42.667-19.103 42.667-42.667s-19.103-42.667-42.667-42.667z" data-tags="arrow-circle-right" glyph-name="arrow-circle-right" unicode=""/><glyph d="M512-64C229.231-64 0 165.231 0 448s229.231 512 512 512 512-229.231 512-512S794.769-64 512-64zm0 938.667C276.359 874.667 85.333 683.642 85.333 448S276.358 21.333 512 21.333c235.641 0 426.667 191.025 426.667 426.667 0 235.641-191.025 426.667-426.667 426.667zm227.556-469.334h-.199c-11.717 0-22.316 4.787-29.948 12.512L512.001 615.253 314.597 417.849a42.498 42.498 0 0 0-29.087-11.451c-23.564 0-42.667 19.103-42.667 42.667 0 11.253 4.356 21.488 11.475 29.112l-.023-.025 227.556 227.556c7.719 7.709 18.379 12.479 30.151 12.479s22.432-4.768 30.152-12.479L769.71 478.152c7.709-7.719 12.479-18.379 12.479-30.151s-4.768-22.432-12.479-30.152c-7.636-7.729-18.235-12.516-29.952-12.516h-.209.011zM512 177.777c-23.436.316-42.351 19.231-42.667 42.636v455.141c0 23.564 19.103 42.667 42.667 42.667s42.667-19.103 42.667-42.667V220.443c-.316-23.436-19.231-42.351-42.636-42.667H512z" data-tags="arrow-circle-up" glyph-name="arrow-circle-up" unicode=""/><glyph d="M980.247-4.701H43.751C27.663-4.65 13.592 3.932 5.818 16.757l-.111.198C2.117 23.278.002 30.843.002 38.904s2.115 15.627 5.823 22.173l-.117-.224 468.247 819.433c8.296 12.379 22.232 20.419 38.044 20.419s29.748-8.039 37.942-20.254l.104-.165 468.247-819.433c3.59-6.323 5.705-13.888 5.705-21.949s-2.115-15.627-5.823-22.173l.117.224c-7.885-13.022-21.958-21.606-38.038-21.657h-.007zm-860.99 87.796h785.486L512 770.249zM512 317.22c-24.113.325-43.573 19.786-43.898 43.866v204.89c0 24.244 19.654 43.898 43.898 43.898s43.898-19.654 43.898-43.898V361.118c-.325-24.113-19.786-43.573-43.866-43.898H512zm0-175.593c-24.113.325-43.573 19.786-43.898 43.866v29.297c0 24.244 19.654 43.898 43.898 43.898s43.898-19.654 43.898-43.898v-29.265c-.325-24.113-19.786-43.573-43.866-43.898H512z" data-tags="exclamation-triangle" glyph-name="exclamation-triangle" unicode=""/><glyph d="M512-63.999c-36.682.495-66.288 30.1-66.783 66.735v623.353c0 36.883 29.9 66.783 66.783 66.783s66.783-29.9 66.783-66.783V2.784c-.495-36.682-30.1-66.288-66.735-66.783H512zm0 845.912c-36.682.495-66.288 30.1-66.783 66.735v44.569C445.217 930.1 475.117 960 512 960s66.783-29.9 66.783-66.783v-44.521c-.495-36.682-30.1-66.288-66.735-66.783H512z" data-tags="info" glyph-name="info" unicode=""/><glyph d="M512 177.777c-23.436.316-42.351 19.231-42.667 42.636v284.475c0 23.564 19.103 42.667 42.667 42.667s42.667-19.103 42.667-42.667V220.444c-.316-23.436-19.231-42.351-42.636-42.667H512zm0 426.667c-23.436.316-42.351 19.231-42.667 42.636v28.475c0 23.564 19.103 42.667 42.667 42.667s42.667-19.103 42.667-42.667v-28.444c-.316-23.436-19.231-42.351-42.636-42.667H512zM512-64C229.231-64 0 165.231 0 448s229.231 512 512 512 512-229.231 512-512S794.769-64 512-64zm0 938.667C276.359 874.667 85.333 683.642 85.333 448S276.358 21.333 512 21.333c235.641 0 426.667 191.025 426.667 426.667 0 235.641-191.025 426.667-426.667 426.667z" data-tags="info-circle" glyph-name="info-circle" unicode=""/><glyph d="M980.714 462.648h-.195a43.163 43.163 0 0 0-26.275 8.867l.106-.077-442.349 331.615L69.652 471.438c-7.252-5.487-16.423-8.788-26.365-8.788-24.268 0-43.942 19.674-43.942 43.942 0 14.326 6.856 27.052 17.467 35.074l.11.08 468.714 351.536c7.252 5.487 16.423 8.788 26.365 8.788s19.113-3.301 26.475-8.868l-.11.08 468.714-351.536c9.942-8.121 16.239-20.379 16.239-34.109a43.738 43.738 0 0 0-7.548-24.634l.099.154c-7.474-11.934-20.322-19.902-35.068-20.503l-.085-.003zM863.536-6.067H160.465c-24.136.325-43.617 19.805-43.942 43.91v556.629c0 24.268 19.674 43.942 43.942 43.942s43.942-19.674 43.942-43.942V81.816h615.187v512.656c0 24.268 19.674 43.942 43.942 43.942s43.942-19.674 43.942-43.942V37.874c-.325-24.136-19.805-43.617-43.91-43.942h-.032zm-234.358 0c-24.136.325-43.617 19.805-43.942 43.91v366.215H438.762V37.875c0-24.268-19.674-43.942-43.942-43.942s-43.942 19.674-43.942 43.942V448c.325 24.136 19.805 43.617 43.91 43.942h234.389c24.136-.325 43.617-19.805 43.942-43.91V37.875c-.325-24.136-19.805-43.617-43.91-43.942h-.032z" data-tags="home" glyph-name="home" unicode=""/><glyph d="M512-63.985C229.427-63.736.452 165.392.452 448c0 282.761 229.224 511.985 511.985 511.985 136.039 0 259.684-53.057 351.374-139.607l-.248.232c7.709-7.718 12.478-18.378 12.478-30.15s-4.768-22.431-12.478-30.151c-7.654-7.849-18.334-12.718-30.15-12.718s-22.495 4.869-30.142 12.709l-.008.009c-76.159 71.371-178.876 115.207-291.832 115.207-235.949 0-427.224-191.274-427.224-427.224S275.481 21.068 511.431 21.068c235.845 0 427.056 191.106 427.224 426.913v.016c0 23.563 19.102 42.665 42.665 42.665s42.665-19.102 42.665-42.665c0-282.761-229.224-511.985-511.985-511.985z" data-tags="spinner" glyph-name="spinner" unicode=""/><glyph d="M788.745 849.288h-69.186v69.186c0 22.926-18.586 41.512-41.512 41.512s-41.512-18.586-41.512-41.512v-69.186H387.464v69.186c0 22.926-18.586 41.512-41.512 41.512S304.44 941.4 304.44 918.474v-69.186h-69.186c-84.063 0-152.209-68.147-152.209-152.209V88.24c0-84.063 68.147-152.209 152.209-152.209h553.491c84.063 0 152.209 68.147 152.209 152.209v608.839c0 84.063-68.147 152.209-152.209 152.209zm-553.49-83.023h69.186v-69.186c0-22.926 18.586-41.512 41.512-41.512s41.512 18.586 41.512 41.512v69.186h249.071v-69.186c0-22.926 18.586-41.512 41.512-41.512s41.512 18.586 41.512 41.512v69.186h69.186c38.21 0 69.186-30.976 69.186-69.186V544.87H166.07v152.209c0 38.21 30.976 69.186 69.186 69.186zm553.49-747.212H235.254c-38.21 0-69.186 30.976-69.186 69.186v373.606H857.93V88.239c0-38.21-30.976-69.186-69.186-69.186z" data-tags="calendar" glyph-name="calendar" unicode=""/><glyph d="M512-64C229.231-64 0 165.231 0 448s229.231 512 512 512 512-229.231 512-512S794.769-64 512-64zm0 938.667C276.359 874.667 85.333 683.642 85.333 448S276.358 21.333 512 21.333c235.641 0 426.667 191.025 426.667 426.667 0 235.641-191.025 426.667-426.667 426.667zm113.777-696.89h-.199c-11.717 0-22.316 4.787-29.948 12.512l-227.56 227.56c-7.709 7.719-12.479 18.379-12.479 30.151s4.768 22.432 12.479 30.152l227.556 227.556a42.498 42.498 0 0 0 29.087 11.451c23.564 0 42.667-19.103 42.667-42.667 0-11.253-4.356-21.488-11.475-29.112l.023.025-197.404-197.404 197.404-197.404c7.709-7.719 12.479-18.379 12.479-30.151s-4.768-22.432-12.479-30.152c-7.636-7.729-18.235-12.516-29.952-12.516h-.209.011z" data-tags="chevron-circle-left" glyph-name="chevron-circle-left" unicode=""/><glyph d="M512-64C229.231-64 0 165.231 0 448s229.231 512 512 512 512-229.231 512-512S794.769-64 512-64zm0 938.667C276.359 874.667 85.333 683.642 85.333 448S276.358 21.333 512 21.333c235.641 0 426.667 191.025 426.667 426.667 0 235.641-191.025 426.667-426.667 426.667zm0-583.111h-.199c-11.717 0-22.316 4.787-29.948 12.512l-227.56 227.56a42.498 42.498 0 0 0-11.451 29.087c0 23.564 19.103 42.667 42.667 42.667 11.253 0 21.488-4.356 29.112-11.475l-.025.023L512 394.526 709.404 591.93a42.498 42.498 0 0 0 29.087 11.451c23.564 0 42.667-19.103 42.667-42.667 0-11.253-4.356-21.488-11.475-29.112l.023.025L542.15 304.071c-7.636-7.729-18.235-12.516-29.952-12.516h-.209.011z" data-tags="chevron-circle-down" glyph-name="chevron-circle-down" unicode=""/><glyph d="M512-64C229.231-64 0 165.231 0 448s229.231 512 512 512 512-229.231 512-512S794.769-64 512-64zm0 938.667C276.359 874.667 85.333 683.642 85.333 448S276.358 21.333 512 21.333c235.641 0 426.667 191.025 426.667 426.667 0 235.641-191.025 426.667-426.667 426.667zm-113.777-696.89h-.199c-11.717 0-22.316 4.787-29.948 12.512l-.004.004c-7.709 7.719-12.479 18.379-12.479 30.151s4.768 22.432 12.479 30.152L565.476 448 368.072 645.404a42.498 42.498 0 0 0-11.451 29.087c0 23.564 19.103 42.667 42.667 42.667 11.253 0 21.488-4.356 29.112-11.475l-.025.023L655.931 478.15c7.709-7.719 12.479-18.379 12.479-30.151s-4.768-22.432-12.479-30.152L428.375 190.291c-7.636-7.729-18.235-12.516-29.952-12.516h-.209.011z" data-tags="chevron-circle-right" glyph-name="chevron-circle-right" unicode=""/><glyph d="M512-64C229.231-64 0 165.231 0 448s229.231 512 512 512 512-229.231 512-512S794.769-64 512-64zm0 938.667C276.359 874.667 85.333 683.642 85.333 448S276.358 21.333 512 21.333c235.641 0 426.667 191.025 426.667 426.667 0 235.641-191.025 426.667-426.667 426.667zm227.556-583.111h-.199c-11.717 0-22.316 4.787-29.948 12.512L512.001 501.476 314.597 304.072a42.498 42.498 0 0 0-29.087-11.451c-23.564 0-42.667 19.103-42.667 42.667 0 11.253 4.356 21.488 11.475 29.112l-.023-.025 227.556 227.556c7.719 7.709 18.379 12.479 30.151 12.479s22.432-4.768 30.152-12.479L769.71 364.375c7.709-7.719 12.479-18.379 12.479-30.151s-4.768-22.432-12.479-30.152c-7.636-7.729-18.235-12.516-29.952-12.516h-.209.011z" data-tags="chevron-circle-up" glyph-name="chevron-circle-up" unicode=""/><glyph d="M512 57.451h-.257c-15.319 0-29.178 6.257-39.16 16.361l-.005.005-258.132 260.364c-5.628 8.568-8.981 19.073-8.981 30.354 0 30.81 24.977 55.792 55.792 55.792 10.145 0 19.649-2.705 27.846-7.433l-.269.143 223.173-223.173L735.18 413.037c7.925 4.589 17.434 7.289 27.577 7.289 30.81 0 55.792-24.977 55.792-55.792a55.575 55.575 0 0 0-9.108-30.566l.128.209L551.437 76.045c-9.737-10.997-23.705-18.053-39.331-18.593l-.092-.004zm0 409.144h-.257c-15.319 0-29.178 6.257-39.16 16.361l-.005.005-258.132 262.596c-3.437 7.037-5.446 15.305-5.446 24.041 0 30.81 24.977 55.792 55.792 55.792 8.741 0 17.009-2.009 24.377-5.597l-.329.145 223.173-223.173 223.173 223.173c7.037 3.437 15.305 5.446 24.041 5.446 30.81 0 55.792-24.977 55.792-55.792 0-8.741-2.009-17.009-5.597-24.377l.145.329L549.203 485.18c-9.233-10.493-22.31-17.429-37.002-18.583l-.192-.012z" data-tags="angle-double-down" glyph-name="angle-double-down" unicode=""/><glyph d="M436.578 127.456h-.262c-15.535 0-29.584 6.348-39.707 16.591l-.004.004-261.716 263.977c-10.22 10.237-16.542 24.365-16.542 39.973s6.32 29.742 16.542 39.973L396.605 749.69c8.688 5.708 19.333 9.102 30.778 9.102 31.242 0 56.568-25.327 56.568-56.568 0-10.286-2.746-19.925-7.538-28.233l.144.272L250.29 447.996l226.267-226.267c10.22-10.237 16.542-24.365 16.542-39.973s-6.32-29.742-16.542-39.973c-9.854-8.923-22.994-14.389-37.408-14.389-.902 0-1.8.024-2.694.065l.124-.004zm414.821 0c-15.091 1.188-28.351 8.214-37.656 18.795l-.055.065-263.977 263.977c-10.22 10.237-16.542 24.365-16.542 39.973s6.32 29.742 16.542 39.973l263.977 259.453c7.129 3.487 15.515 5.521 24.379 5.521 31.242 0 56.568-25.327 56.568-56.568 0-8.864-2.038-17.25-5.669-24.715l.144.336-226.267-226.267L889.11 221.732c8.942-9.959 14.408-23.201 14.408-37.714s-5.466-27.749-14.45-37.763l.045.055c-9.366-10.641-22.619-17.666-37.517-18.843l-.193-.014z" data-tags="angle-double-left" glyph-name="angle-double-left" unicode=""/><glyph d="M587.102 128.818h-.259c-15.47 0-29.463 6.321-39.534 16.519l-.004.004c-10.173 10.194-16.472 24.266-16.472 39.803s6.29 29.611 16.472 39.809l225.304 225.304-225.304 225.304c-3.536 7.161-5.605 15.588-5.605 24.492 0 31.111 25.217 56.325 56.325 56.325 10.665 0 20.638-2.967 29.14-8.115l-.251.143 262.858-262.858c10.173-10.194 16.472-24.266 16.472-39.803s-6.29-29.611-16.472-39.809l-262.858-258.35c-9.83-11.106-23.933-18.225-39.711-18.775l-.094-.004zm-413.06 0c-15.029 1.181-28.228 8.178-37.495 18.716l-.053.063c-8.9 9.92-14.342 23.099-14.342 37.554s5.442 27.63 14.391 37.603l-.045-.053 225.304 225.304-225.304 225.304c-3.467 7.105-5.497 15.45-5.497 24.276 0 31.111 25.217 56.325 56.325 56.325 8.82 0 17.176-2.028 24.609-5.644l-.339.145 262.858-262.858c10.173-10.194 16.472-24.266 16.472-39.803s-6.29-29.611-16.472-39.809l-262.858-258.35c-9.32-10.596-22.521-17.598-37.357-18.765l-.192-.014z" data-tags="angle-double-right" glyph-name="angle-double-right" unicode=""/><glyph d="M768.744 466.343h-.259c-15.11 0-28.77 6.175-38.616 16.135L509.798 702.549 289.731 482.482c-6.991-3.451-15.223-5.479-23.923-5.479-30.385 0-55.016 24.631-55.016 55.016a54.774 54.774 0 0 0 7.927 28.458l-.139-.247 254.542 254.542c9.955 9.943 23.695 16.087 38.874 16.087s28.926-6.151 38.877-16.087l256.744-256.744c9.943-9.955 16.087-23.695 16.087-38.874s-6.151-28.926-16.087-38.877c-9.583-8.683-22.363-13.999-36.378-13.999-.883 0-1.752.019-2.623.067l.127-.007zm0-403.461c-14.683 1.159-27.57 7.987-36.629 18.283l-.055.06-220.067 220.067L291.926 81.225c-6.935-3.391-15.091-5.371-23.707-5.371-30.385 0-55.016 24.631-55.016 55.016a54.868 54.868 0 0 0 5.515 24.038l-.139-.331 256.744 256.744c9.955 9.943 23.695 16.087 38.874 16.087s28.926-6.151 38.877-16.087l252.342-256.744c8.695-9.691 14.011-22.565 14.011-36.678s-5.316-26.99-14.059-36.726l.043.055c-9.104-10.351-22.001-17.184-36.486-18.331l-.187-.012z" data-tags="angle-double-up" glyph-name="angle-double-up" unicode=""/><glyph d="M512 235.79h-.293c-17.487 0-33.3 7.139-44.687 18.671l-.006.006-294.549 297.097c-6.421 9.779-10.246 21.757-10.246 34.639 0 35.163 28.506 63.662 63.662 63.662 11.573 0 22.424-3.091 31.773-8.485l-.306.164 254.656-254.656L766.66 641.544c9.044 5.23 19.894 8.318 31.469 8.318 35.163 0 63.662-28.506 63.662-63.662 0-12.88-3.82-24.863-10.395-34.879l.149.244-297.097-297.097c-10.874-11.029-25.782-18.05-42.325-18.671l-.112-.002z" data-tags="angle-down" glyph-name="angle-down" unicode=""/><glyph d="M645.785 123.096h-.264c-15.744 0-29.987 6.434-40.247 16.814l-267.57 267.57c-10.36 10.374-16.768 24.697-16.768 40.517s6.404 30.147 16.768 40.517l267.566 265.27c8.804 5.784 19.594 9.224 31.197 9.224 31.667 0 57.335-25.671 57.335-57.335 0-10.424-2.782-20.194-7.64-28.617l.144.274-229.343-229.343 229.343-229.343c10.36-10.374 16.768-24.697 16.768-40.517s-6.404-30.147-16.768-40.517c-9.987-9.044-23.307-14.584-37.917-14.584-.914 0-1.824.023-2.732.064l.124-.004z" data-tags="angle-left" glyph-name="angle-left" unicode=""/><glyph d="M377.809 122.106c-16.204.566-30.605 7.836-40.589 19.11l-.054.059c-10.396 10.404-16.822 24.776-16.822 40.643s6.424 30.235 16.822 40.645L567.21 452.607 337.166 682.651c-2.746 6.474-4.334 14.004-4.334 21.905 0 31.765 25.748 57.513 57.513 57.513 10.324 0 20.016-2.723 28.392-7.484l-.286.149L686.835 486.35c10.396-10.406 16.822-24.773 16.822-40.643s-6.424-30.236-16.822-40.645L418.451 141.279c-10.036-11.334-24.433-18.607-40.543-19.164l-.096-.006z" data-tags="angle-right" glyph-name="angle-right" unicode=""/><glyph d="M804.999 238.714h-.29c-17.244 0-32.838 7.04-44.069 18.415L509.491 508.278 258.348 257.135c-7.978-3.94-17.369-6.249-27.304-6.249-34.676 0-62.787 28.109-62.787 62.787 0 11.887 3.305 23 9.042 32.478l-.157-.277 292.999 292.999c11.357 11.344 27.043 18.363 44.37 18.363s33.008-7.014 44.37-18.363L851.88 345.874c11.344-11.357 18.363-27.043 18.363-44.37s-7.014-33.008-18.363-44.37c-11.24-11.41-26.866-18.481-44.134-18.481-.966 0-1.925.024-2.88.07l.133-.002z" data-tags="angle-up" glyph-name="angle-up" unicode=""/><glyph d="M875.959-64H148.042C65.479-60.528-.138 7.248-.138 90.349c0 2.309.051 4.607.151 6.89l-.011-.325v175.543c0 24.237 19.648 43.886 43.886 43.886s43.886-19.648 43.886-43.886V96.914a65.85 65.85 0 0 1-.255-5.881c0-34.276 25.406-62.617 58.412-67.222l.357-.041h729.673c33.364 4.645 58.77 32.987 58.77 67.263a68.91 68.91 0 0 1-.274 6.141l.019-.261v175.543c0 24.237 19.648 43.886 43.886 43.886s43.886-19.648 43.886-43.886V96.913c.091-1.983.143-4.309.143-6.646 0-82.485-64.648-149.87-146.039-154.251l-.389-.016zM746.058 638.172h-.204c-12.052 0-22.954 4.923-30.804 12.869L512.002 854.089 308.958 651.045a43.714 43.714 0 0 0-29.918-11.778c-24.237 0-43.886 19.648-43.886 43.886 0 11.575 4.48 22.102 11.803 29.944l-.023-.026 234.058 234.058c7.939 7.93 18.904 12.835 31.012 12.835s23.073-4.904 31.013-12.835l234.058-234.058c7.93-7.939 12.835-18.904 12.835-31.012s-4.904-23.073-12.835-31.013c-7.854-7.95-18.756-12.874-30.808-12.874h-.215.011zM512 228.571c-24.106.325-43.561 19.78-43.886 43.854v643.688c0 24.237 19.648 43.886 43.886 43.886s43.886-19.648 43.886-43.886V272.456c-.325-24.106-19.78-43.561-43.854-43.886H512z" data-tags="upload" glyph-name="upload" unicode=""/><glyph d="M512 960C229.231 960 0 730.769 0 448S229.231-64 512-64s512 229.231 512 512-229.231 512-512 512zM85.333 448v.369c0 102.621 36.521 196.712 97.276 269.985l-.565-.701 599.609-599.609c-72.916-60.16-167.308-96.645-270.223-96.645-235.327 0-426.097 190.771-426.097 426.097v.531-.028zm756.623-269.653L242.347 777.956c72.855 59.977 167.108 96.344 269.855 96.344 235.327 0 426.097-190.771 426.097-426.097 0-102.747-36.367-197-96.931-270.591l.587.735z" data-tags="ban" glyph-name="ban" unicode=""/><glyph d="M1021.85 566.517c-4.841 15.03-17.644 26.152-33.316 28.484l-.227.028-303.002 44.165-135.848 274.491c-7.746 12.831-21.614 21.279-37.457 21.279s-29.71-8.447-37.346-21.083l-.11-.195-135.848-274.491L35.694 595.03c-15.899-2.36-28.701-13.481-33.462-28.219l-.081-.292c-1.397-4-2.204-8.612-2.204-13.413 0-11.571 4.687-22.048 12.267-29.634l220.265-213.556L180.488 8.031c-.38-2.136-.597-4.594-.597-7.102 0-14.016 6.787-26.448 17.254-34.186l.115-.081c6.76-4.866 15.204-7.783 24.332-7.783a41.738 41.738 0 0 1 20.052 5.097l-.219-.11 270.579 142.557L783.141-36.134c5.647-3.156 12.387-5.02 19.564-5.031h.004c9.211.109 17.721 3.021 24.742 7.922l-.143-.094C837.89-25.516 844.677-13.086 844.677.93c0 2.509-.218 4.967-.634 7.356l.037-.254-52.551 301.885 219.705 213.556c7.83 7.626 12.687 18.27 12.687 30.05 0 4.646-.756 9.117-2.151 13.294l.085-.296z" data-tags="star-fill" glyph-name="star-fill" unicode=""/><glyph d="M802.661-41.092a40.631 40.631 0 0 0-19.772 5.137l.207-.106L512 106.474 240.904-36.061c-5.737-3.14-12.567-4.986-19.829-4.986a41.723 41.723 0 0 0-24.452 7.867l.124-.085c-10.58 7.82-17.366 20.248-17.366 34.262 0 2.509.217 4.966.634 7.355l-.037-.254 52.543 301.84L12.289 523.462C4.712 531.047.024 541.521.024 553.091c0 4.8.807 9.412 2.291 13.706l-.089-.295c4.841 15.028 17.641 26.148 33.311 28.48l.227.028 302.957 44.158 135.828 274.45c7.745 12.829 21.611 21.276 37.451 21.276s29.706-8.446 37.341-21.08l.11-.195 135.828-274.45 302.957-44.158c15.896-2.359 28.697-13.479 33.457-28.215l.081-.292c1.397-4 2.204-8.611 2.204-13.411 0-11.569-4.686-22.045-12.265-29.63L791.481 309.939l51.984-301.84c.38-2.135.597-4.593.597-7.101 0-14.014-6.786-26.444-17.251-34.181l-.115-.081c-6.725-4.703-15.021-7.598-23.979-7.824l-.056-.001zM512 195.349c7.119-.088 13.834-1.727 19.85-4.594l-.287.123L746.764 79.086l-40.805 239.795c-.368 2.129-.579 4.58-.579 7.081 0 11.813 4.698 22.528 12.328 30.38l-.01-.01 174.396 167.689-240.912 35.774c-13.783 2.252-25.168 10.868-31.19 22.677l-.111.241-107.88 217.995-107.88-218.555c-6.135-12.049-17.52-20.666-31.056-22.884l-.246-.033-240.912-35.215 174.396-167.689c7.619-7.842 12.317-18.557 12.317-30.37a44.03 44.03 0 0 0-.614-7.338l.035.257-40.805-241.472 215.201 111.792c5.628 3.296 12.279 5.497 19.381 6.135l.183.013z" data-tags="star" glyph-name="star" unicode=""/><glyph d="M512-63.452c-234.044 0-423.774 189.73-423.774 423.774S277.956 784.096 512 784.096h146.13c24.211 0 43.839-19.627 43.839-43.839s-19.627-43.839-43.839-43.839H512c-185.621 0-336.097-150.475-336.097-336.097S326.378 24.224 512 24.224c185.621 0 336.097 150.475 336.097 336.097 0 24.211 19.627 43.839 43.839 43.839s43.839-19.627 43.839-43.839C935.442 126.41 745.911-63.122 512.032-63.453H512zm0 584.516h-.204c-12.039 0-22.929 4.918-30.771 12.856l-.004.004c-7.921 7.931-12.821 18.884-12.821 30.979s4.899 23.048 12.821 30.98l144.376 144.376-144.376 144.376c-8.595 8.025-13.953 19.423-13.953 32.074 0 24.211 19.627 43.839 43.839 43.839 12.65 0 24.048-5.358 32.049-13.927l.023-.026L718.334 771.24c7.921-7.931 12.821-18.884 12.821-30.979s-4.899-23.048-12.821-30.98L542.979 533.926c-7.846-7.942-18.736-12.86-30.775-12.86h-.215.011z" data-tags="refresh" glyph-name="refresh" unicode=""/><glyph d="M512 431.484c-136.816 0-247.725 110.91-247.725 247.725S375.185 926.934 512 926.934c136.816 0 247.725-110.91 247.725-247.725 0-136.816-110.91-247.725-247.725-247.725zm0 396.361c-82.088 0-148.635-66.547-148.635-148.635S429.912 530.575 512 530.575s148.635 66.547 148.635 148.635S594.088 827.845 512 827.845zm462.421-858.78c-27.214.367-49.178 22.331-49.545 49.509v.036c0 128.817-70.024 214.696-412.876 214.696S99.124 147.427 99.124 18.61c0-27.363-22.182-49.545-49.545-49.545S.034-8.753.034 18.61C.034 332.396 358.74 332.396 512 332.396s511.966 0 511.966-313.786c-.367-27.214-22.331-49.178-49.509-49.545h-.036z" data-tags="user" glyph-name="user" unicode=""/><glyph d="M863.07 959.977H160.93C72.064 959.977.023 887.936.023 799.07V448c0-24.236 19.648-43.884 43.884-43.884S87.791 423.764 87.791 448v351.07c0 40.394 32.746 73.139 73.139 73.139h702.14c40.394 0 73.139-32.746 73.139-73.139V96.93c0-40.394-32.746-73.139-73.139-73.139H512c-24.236 0-43.884-19.648-43.884-43.884S487.764-63.977 512-63.977h351.07c88.866 0 160.907 72.041 160.907 160.907v702.14c0 88.866-72.041 160.907-160.907 160.907zM465.775 378.372c5.003-2.189 10.831-3.478 16.956-3.511H716.79c24.236 0 43.884 19.648 43.884 43.884s-19.648 43.884-43.884 43.884H588.649l188.408 188.408a43.709 43.709 0 0 1 11.777 29.916c0 24.236-19.648 43.884-43.884 43.884-11.574 0-22.101-4.48-29.942-11.802l.026.023L526.626 524.65v128.141c0 24.236-19.648 43.884-43.884 43.884s-43.884-19.648-43.884-43.884V418.744a43.753 43.753 0 0 1 3.62-17.252l-.11.284c4.316-10.739 12.665-19.089 23.125-23.305l.28-.099zm-187.822-62.023H102.418C46 316.019.353 270.373.022 213.985V38.418C.352-18 45.998-63.647 102.386-63.978h175.567c56.418.33 102.065 45.976 102.396 102.364v175.567c-.33 56.418-45.976 102.065-102.364 102.396h-.032zm14.628-277.931c0-8.079-6.55-14.628-14.628-14.628H102.418c-8.079 0-14.628 6.55-14.628 14.628v175.535c0 8.079 6.55 14.628 14.628 14.628h175.535c8.079 0 14.628-6.55 14.628-14.628z" data-tags="window-minimize" glyph-name="window-minimize" unicode=""/><glyph d="M863.07-63.977H512c-24.236 0-43.884 19.648-43.884 43.884S487.764 23.791 512 23.791h351.07c40.394 0 73.139 32.746 73.139 73.139v702.14c0 40.394-32.746 73.139-73.139 73.139H160.93c-40.394 0-73.139-32.746-73.139-73.139V448c0-24.236-19.648-43.884-43.884-43.884S.023 423.764.023 448v351.07c0 88.866 72.041 160.907 160.907 160.907h702.14c88.866 0 160.907-72.041 160.907-160.907V96.93c0-88.866-72.041-160.907-160.907-160.907zM746.047 404.116c-24.105.325-43.559 19.779-43.884 43.852v190.195H512c-24.236 0-43.884 19.648-43.884 43.884s19.648 43.884 43.884 43.884h234.047c24.105-.325 43.559-19.779 43.884-43.852V448c-.325-24.105-19.779-43.559-43.852-43.884h-.032zm-263.302-29.255c-11.709.922-21.991 6.371-29.214 14.58l-.041.048c-6.935 7.728-11.175 17.996-11.175 29.255s4.24 21.528 11.211 29.297l-.036-.041 263.303 263.303a43.709 43.709 0 0 0 29.916 11.777c24.236 0 43.884-19.648 43.884-43.884 0-11.574-4.48-22.101-11.802-29.942l.023.026-266.813-259.792c-7.264-8.256-17.547-13.707-29.106-14.619l-.151-.01zM277.953-63.977H102.418C46-63.647.353-18.001.022 38.387v175.567c.33 56.418 45.976 102.065 102.364 102.396h175.567c56.418-.33 102.065-45.976 102.396-102.364V38.419c-.33-56.418-45.976-102.065-102.364-102.396h-.032zM102.418 228.581c-8.079 0-14.628-6.55-14.628-14.628V38.418c0-8.079 6.55-14.628 14.628-14.628h175.535c8.079 0 14.628 6.55 14.628 14.628v175.535c0 8.079-6.55 14.628-14.628 14.628z" data-tags="window-maximize" glyph-name="window-maximize" unicode=""/><glyph d="M862.106-62.571H161.893C73.271-62.571 1.428 9.272 1.428 97.894v700.213c0 88.622 71.843 160.465 160.465 160.465h350.106c24.17 0 43.763-19.594 43.763-43.763s-19.594-43.763-43.763-43.763H161.893c-40.283 0-72.938-32.656-72.938-72.938V97.895c0-40.283 32.656-72.938 72.938-72.938h700.213c40.283 0 72.938 32.656 72.938 72.938v350.106c0 24.17 19.594 43.763 43.763 43.763s43.763-19.594 43.763-43.763V97.895c0-88.622-71.843-160.465-160.465-160.465zm116.702 700.212c-24.038.324-43.439 19.725-43.763 43.732v189.673H745.404c-24.17 0-43.763 19.594-43.763 43.763s19.594 43.763 43.763 43.763h233.405c24.038-.324 43.439-19.725 43.763-43.732V681.404c-.324-24.038-19.725-43.439-43.732-43.763h-.031zM599.527 491.763c-11.677.919-21.931 6.354-29.134 14.54l-.041.048c-6.916 7.706-11.145 17.947-11.145 29.175s4.229 21.469 11.18 29.216l-.036-.041 379.281 379.281c8.011 8.58 19.39 13.929 32.018 13.929 24.17 0 43.763-19.594 43.763-43.763 0-12.628-5.349-24.007-13.903-31.994l-.026-.023-382.782-375.78c-7.244-8.233-17.498-13.669-29.026-14.579l-.15-.01z" data-tags="external-link" glyph-name="external-link" unicode=""/><glyph d="M979.856 640.991H44.142C19.918 640.991.28 660.629.28 684.853s19.638 43.862 43.862 43.862h935.714c24.224 0 43.862-19.638 43.862-43.862s-19.638-43.862-43.862-43.862zM771.66-63.718H252.339a135.798 135.798 0 0 0-9.577-.328c-74.752 0-135.856 58.437-140.12 132.119l-.018.377v613.477c0 24.224 19.638 43.862 43.862 43.862s43.862-19.638 43.862-43.862V68.45c0-23.977 27.486-44.447 58.483-44.447h519.321c32.75 0 58.483 20.468 58.483 44.447v613.477c0 26.162 21.208 47.37 47.37 47.37s47.37-21.208 47.37-47.37V68.45C917.093-5.61 855.99-64.046 781.239-64.046c-3.37 0-6.712.119-10.022.352l.445-.025zm7.018 760.266a35.887 35.887 0 0 0-.589-.004c-23.9 0-43.276 19.376-43.276 43.276 0 .207.001.414.004.62v-.032 87.138c0 23.977-28.071 44.447-58.483 44.447H349.419c-32.166 0-58.483-20.468-58.483-44.447v-87.138c0-24.224-19.638-43.862-43.862-43.862s-43.862 19.638-43.862 43.862v87.138c4.697 74.022 65.883 132.278 140.675 132.278 1.945 0 3.88-.04 5.806-.118l-.276.008h325.161a136.9 136.9 0 0 0 7.28.188c74.82 0 136.023-58.3 140.66-131.951l.021-.407v-87.138c.003-.174.004-.38.004-.585 0-24.224-19.638-43.862-43.862-43.862h-.004zM407.901 155.59c-24.092.325-43.537 19.769-43.862 43.83v264.955c0 24.224 19.638 43.862 43.862 43.862s43.862-19.638 43.862-43.862V200.036c.003-.174.004-.38.004-.585 0-24.224-19.638-43.862-43.862-43.862h-.004zm208.198 0c-24.224 0-43.862 19.638-43.862 43.862v264.924c0 24.224 19.638 43.862 43.862 43.862s43.862-19.638 43.862-43.862V200.033c0-24.342-19.568-44.112-43.83-44.443h-.032z" data-tags="trash" glyph-name="trash" unicode=""/><glyph d="M512 403.48c-122.938 0-222.599 99.66-222.599 222.599S389.061 848.678 512 848.678c122.938 0 222.599-99.66 222.599-222.599 0-122.938-99.66-222.599-222.599-222.599zm0 356.158c-73.762 0-133.559-59.797-133.559-133.559S438.238 492.52 512 492.52s133.559 59.797 133.559 133.559S585.762 759.638 512 759.638zM927.518-12.038c-24.454.33-44.19 20.066-44.52 44.488v.032c0 115.751-62.922 192.919-370.998 192.919S141.002 148.233 141.002 32.482c0-24.587-19.932-44.52-44.52-44.52s-44.52 19.932-44.52 44.52c0 281.959 322.323 281.959 460.038 281.959s460.038 0 460.038-281.959c-.33-24.454-20.066-44.19-44.488-44.52h-.032zm103.878 415.518H823.638c-24.587 0-44.52 19.932-44.52 44.52s19.932 44.52 44.52 44.52h207.758c24.587 0 44.52-19.932 44.52-44.52s-19.932-44.52-44.52-44.52z" data-tags="user-minus" glyph-name="user-minus" unicode=""/><glyph d="M512 403.48c-122.938 0-222.599 99.66-222.599 222.599S389.061 848.678 512 848.678c122.938 0 222.599-99.66 222.599-222.599 0-122.938-99.66-222.599-222.599-222.599zm0 356.158c-73.762 0-133.559-59.797-133.559-133.559S438.238 492.52 512 492.52s133.559 59.797 133.559 133.559S585.762 759.638 512 759.638zM927.518-12.038c-24.454.33-44.19 20.066-44.52 44.488v.032c0 115.751-62.922 192.919-370.998 192.919S141.002 148.233 141.002 32.482c0-24.587-19.932-44.52-44.52-44.52s-44.52 19.932-44.52 44.52c0 281.959 322.323 281.959 460.038 281.959s460.038 0 460.038-281.959c-.33-24.454-20.066-44.19-44.488-44.52h-.032zm0 311.638c-24.454.33-44.19 20.066-44.52 44.488v207.79c0 24.587 19.932 44.52 44.52 44.52s44.52-19.932 44.52-44.52V344.12c-.33-24.454-20.066-44.19-44.488-44.52h-.032zm103.878 103.88H823.638c-24.587 0-44.52 19.932-44.52 44.52s19.932 44.52 44.52 44.52h207.758c24.587 0 44.52-19.932 44.52-44.52s-19.932-44.52-44.52-44.52z" data-tags="user-plus" glyph-name="user-plus" unicode=""/><glyph d="M512-64C229.231-64 0 165.231 0 448s229.231 512 512 512 512-229.231 512-512S794.769-64 512-64zm0 938.667C276.359 874.667 85.333 683.642 85.333 448S276.358 21.333 512 21.333c235.641 0 426.667 191.025 426.667 426.667 0 235.641-191.025 426.667-426.667 426.667zm170.667-469.334H512c-23.436.316-42.351 19.231-42.667 42.636v284.475c0 23.564 19.103 42.667 42.667 42.667s42.667-19.103 42.667-42.667V490.667h128c23.564 0 42.667-19.103 42.667-42.667s-19.103-42.667-42.667-42.667z" data-tags="clock" glyph-name="clock" unicode=""/><glyph d="M617.025 434.871c-108.758 0-196.923 88.165-196.923 196.923s88.165 196.923 196.923 196.923 196.923-88.165 196.923-196.923-88.165-196.923-196.923-196.923zm0 315.077c-65.254 0-118.154-52.9-118.154-118.154s52.9-118.154 118.154-118.154c65.254 0 118.154 52.9 118.154 118.154 0 65.254-52.9 118.154-118.154 118.154zm367.59-682.666c-21.633.292-39.093 17.751-39.385 39.356v.028c0 102.4-55.664 170.667-328.206 170.667s-328.206-68.267-328.206-170.667c0-21.751-17.633-39.385-39.385-39.385s-39.385 17.633-39.385 39.385c0 249.436 285.145 249.436 406.975 249.436s406.975 0 406.975-249.436c-.292-21.633-17.751-39.093-39.356-39.385h-.028zM318.753 392.336h-16.804c-80.61 8.022-143.044 75.489-143.044 157.538 0 87.412 70.862 158.273 158.273 158.273 5.362 0 10.663-.267 15.888-.788l-.66.053c21.012-.932 37.694-18.192 37.694-39.348 0-21.751-17.633-39.385-39.385-39.385-2.183 0-4.326.177-6.414.519l.228-.031a74.183 74.183 0 0 1-7.607.378c-18.98 0-36.35-6.897-49.738-18.321l.107.089c-15.663-12.706-26.198-31.205-28.33-52.186l-.027-.326c-.273-2.455-.43-5.301-.43-8.183 0-40.775 31.191-74.267 71.015-77.915l.306-.022a77.767 77.767 0 0 1 6.848-.293c15.535 0 30.039 4.409 42.331 12.043l-.342-.198c5.898 3.695 13.065 5.886 20.742 5.886 21.812 0 39.494-17.682 39.494-39.494 0-14.133-7.424-26.533-18.586-33.511l-.166-.097c-23.058-14.912-51.098-24.022-81.222-24.678l-.174-.002zM39.385 106.667C17.752 106.959.292 124.418 0 146.023v.028c0 141.785 37.809 236.308 223.179 236.308 21.751 0 39.385-17.633 39.385-39.385s-17.633-39.385-39.385-39.385c-123.406 0-144.41-39.385-144.41-157.538-.292-21.633-17.751-39.093-39.356-39.385h-.028z" data-tags="users" glyph-name="users" unicode=""/><glyph d="M45.313-62.421c-.136-.001-.296-.003-.456-.003-11.964 0-22.806 4.803-30.702 12.588l.006-.006C5.913-41.693.805-30.381.805-17.876c0 1.401.065 2.787.19 4.155l-.013-.176 18.572 230.049c.852 11.108 5.734 20.935 13.169 28.147l662.6 662.6c34.079 31.973 80.059 51.615 130.628 51.615 2.096 0 4.186-.034 6.267-.101l-.303.008c52.335-.418 99.758-21.108 134.873-54.592l-.079.074c34.783-35.688 56.235-84.513 56.235-138.348 0-50.427-18.822-96.457-49.825-131.448l.181.208L310.112-31.27c-7.185-7.16-16.72-11.966-27.348-13.161l-.211-.02L49.509-65.419zm59.907 255.21L92.639 28.639l164.15 14.978 653.004 654.202c15.132 17.82 24.333 41.087 24.333 66.503 0 56.908-46.133 103.043-103.043 103.043-.341 0-.681-.001-1.021-.006h.052a92.798 92.798 0 0 1-6.112.194c-25.163 0-48.075-9.635-65.249-25.419l.069.063zm621.851 682.359z" data-tags="pencil" glyph-name="pencil" unicode=""/><glyph d="M815.587 103.015c-22.863 0-41.398 18.535-41.398 41.398s18.535 41.398 41.398 41.398c91.628 0 124.194 45.813 124.194 175.528-8.48 95.471-83.922 170.912-178.638 179.338l-.753.054c-19.914-.52-38.817-4.118-56.489-10.331l1.291.396c-4.655-2-10.071-3.163-15.761-3.163-18.775 0-34.592 12.668-39.37 29.923l-.067.287c-38.556 117.836-147.511 201.455-275.996 201.455-159.262 0-288.519-128.478-289.778-287.443l-.001-.119c0-177.736 8.28-285.923 124.194-285.923 22.863 0 41.398-18.535 41.398-41.398s-18.535-41.398-41.398-41.398C1.422 103.017 1.422 316.079 1.422 471.736a355.724 355.724 0 0 0-.074 7.382c0 205.772 166.811 372.583 372.583 372.583 155.102 0 288.069-94.773 344.148-229.569l.909-2.466c12.977 2.459 27.905 3.866 43.161 3.866.351 0 .701-.001 1.052-.003h-.054c141.071-8.919 253.269-121.118 262.147-261.377l.041-.811c-2.759-70.652-2.759-258.324-209.75-258.324zM512 51.681h-.193c-11.369 0-21.653 4.644-29.058 12.14L326.536 220.034a41.233 41.233 0 0 0-11.11 28.222c0 22.863 18.535 41.398 41.398 41.398 10.919 0 20.849-4.226 28.246-11.134l-.025.022 126.954-126.954 126.954 126.954a41.233 41.233 0 0 0 28.222 11.11c22.863 0 41.398-18.535 41.398-41.398 0-10.919-4.226-20.849-11.134-28.246l.022.025L541.252 61.617c-7.128-6.219-16.515-10.011-26.787-10.011-.868 0-1.73.027-2.585.08l.116-.006zm0 0c-22.863 0-41.398 18.535-41.398 41.398v351.056c0 22.863 18.535 41.398 41.398 41.398s41.398-18.535 41.398-41.398V93.079c0-22.863-18.535-41.398-41.398-41.398z" data-tags="cloud-download" glyph-name="cloud-download" unicode=""/><glyph d="M815.587 103.015c-22.863 0-41.398 18.535-41.398 41.398s18.535 41.398 41.398 41.398c91.628 0 124.194 45.813 124.194 175.528-8.48 95.471-83.922 170.912-178.638 179.338l-.753.054c-19.914-.52-38.817-4.118-56.489-10.331l1.291.396c-4.655-2-10.071-3.163-15.761-3.163-18.775 0-34.592 12.668-39.37 29.923l-.067.287c-38.556 117.836-147.511 201.455-275.996 201.455-159.262 0-288.519-128.478-289.778-287.443l-.001-.119c0-189.879 41.951-285.923 124.194-285.923 22.863 0 41.398-18.535 41.398-41.398s-18.535-41.398-41.398-41.398c-137.994 0-206.991 124.194-206.991 368.719a355.724 355.724 0 0 0-.074 7.382c0 205.772 166.811 372.583 372.583 372.583 155.102 0 288.069-94.773 344.148-229.569l.909-2.466c12.977 2.459 27.905 3.866 43.161 3.866.351 0 .701-.001 1.052-.003h-.054c141.071-8.919 253.269-121.118 262.147-261.377l.041-.811c-2.759-70.652-2.759-258.324-209.75-258.324zM668.209 246.53c-11.406.137-21.709 4.745-29.262 12.15L512 385.627 385.046 258.673a41.233 41.233 0 0 0-28.222-11.11c-22.863 0-41.398 18.535-41.398 41.398 0 10.919 4.226 20.849 11.134 28.246l-.022-.025 156.209 156.209c7.427 7.616 17.79 12.341 29.254 12.341s21.827-4.725 29.246-12.331l.008-.009 156.209-156.209c7.48-7.489 12.108-17.832 12.108-29.254s-4.626-21.765-12.108-29.256c-7.6-7.307-17.868-11.888-29.205-12.143l-.049-.001zM512 51.681c-22.863 0-41.398 18.535-41.398 41.398v351.056c0 22.863 18.535 41.398 41.398 41.398s41.398-18.535 41.398-41.398V93.079c0-22.863-18.535-41.398-41.398-41.398z" data-tags="cloud-upload" glyph-name="cloud-upload" unicode=""/><glyph d="M761.085 74.373H373.62C167.283 74.39.022 241.662.022 448c0 206.348 167.278 373.627 373.627 373.627 152.926 0 284.392-91.876 342.215-223.439l.939-2.397c13.246 2.68 28.531 4.285 44.166 4.428l.115.001c141.466-8.944 253.978-121.457 262.882-262.11l.042-.813c0-145.209-117.715-262.923-262.923-262.923zM373.619 738.599C213.125 738.599 83.02 608.494 83.02 448s130.105-290.599 290.599-290.599h387.465c99.226.314 179.581 80.668 179.895 179.864v.03c-8.504 95.738-84.157 171.391-179.139 179.84l-.755.054c-19.989-.459-38.949-4.276-56.529-10.907l1.178.389c-4.752-1.958-10.27-3.095-16.052-3.095s-11.3 1.136-16.34 3.199l.288-.104c-9.801 5.017-17.16 13.636-20.404 24.069l-.077.287c-36.721 121.012-147.288 207.574-278.073 207.574-.511 0-1.022-.001-1.533-.004h.079z" data-tags="cloud" glyph-name="cloud" unicode=""/><glyph d="M980.093 521.139H394.976c-24.236 0-43.884 19.648-43.884 43.884s19.648 43.884 43.884 43.884h585.117c24.236 0 43.884-19.648 43.884-43.884s-19.648-43.884-43.884-43.884zm4.096 234.047H48.002c-24.236 0-43.884 19.648-43.884 43.884s19.648 43.884 43.884 43.884h936.187c24.236 0 43.884-19.648 43.884-43.884s-19.648-43.884-43.884-43.884zm0-468.093H48.002c-24.236 0-43.884 19.648-43.884 43.884s19.648 43.884 43.884 43.884h936.187c24.236 0 43.884-19.648 43.884-43.884s-19.648-43.884-43.884-43.884zm-4.096-234.047H394.976c-24.236 0-43.884 19.648-43.884 43.884s19.648 43.884 43.884 43.884h585.117c24.236 0 43.884-19.648 43.884-43.884s-19.648-43.884-43.884-43.884z" data-tags="align-right" glyph-name="align-right" unicode=""/><glyph d="M624.033 506.048H43.554C19.51 506.048.018 525.54.018 549.584S19.51 593.12 43.554 593.12h580.479c24.044 0 43.536-19.492 43.536-43.536s-19.492-43.536-43.536-43.536zm356.413 232.191H51.68c-24.044 0-43.536 19.492-43.536 43.536s19.492 43.536 43.536 43.536h928.766c24.044 0 43.536-19.492 43.536-43.536s-19.492-43.536-43.536-43.536zm0-464.382H51.68c-24.044 0-43.536 19.492-43.536 43.536s19.492 43.536 43.536 43.536h928.766c24.044 0 43.536-19.492 43.536-43.536s-19.492-43.536-43.536-43.536zM624.033 41.665H43.554C19.51 41.665.018 61.157.018 85.201s19.492 43.536 43.536 43.536h580.479c24.044 0 43.536-19.492 43.536-43.536s-19.492-43.536-43.536-43.536z" data-tags="align-left" glyph-name="align-left" unicode=""/><glyph d="M804.558 521.139H219.441c-24.236 0-43.884 19.648-43.884 43.884s19.648 43.884 43.884 43.884h585.117c24.236 0 43.884-19.648 43.884-43.884s-19.648-43.884-43.884-43.884zm175.535 234.047H43.906C19.67 755.186.022 774.834.022 799.07s19.648 43.884 43.884 43.884h936.187c24.236 0 43.884-19.648 43.884-43.884s-19.648-43.884-43.884-43.884zm0-468.093H43.906c-24.236 0-43.884 19.648-43.884 43.884s19.648 43.884 43.884 43.884h936.187c24.236 0 43.884-19.648 43.884-43.884s-19.648-43.884-43.884-43.884zM804.558 53.046H219.441c-24.236 0-43.884 19.648-43.884 43.884s19.648 43.884 43.884 43.884h585.117c24.236 0 43.884-19.648 43.884-43.884s-19.648-43.884-43.884-43.884z" data-tags="align-center" glyph-name="align-center" unicode=""/><glyph d="M980.093 521.139H43.906c-24.236 0-43.884 19.648-43.884 43.884s19.648 43.884 43.884 43.884h936.187c24.236 0 43.884-19.648 43.884-43.884s-19.648-43.884-43.884-43.884zm0 234.047H43.906C19.67 755.186.022 774.834.022 799.07s19.648 43.884 43.884 43.884h936.187c24.236 0 43.884-19.648 43.884-43.884s-19.648-43.884-43.884-43.884zm0-468.093H43.906c-24.236 0-43.884 19.648-43.884 43.884s19.648 43.884 43.884 43.884h936.187c24.236 0 43.884-19.648 43.884-43.884s-19.648-43.884-43.884-43.884zm0-234.047H43.906C19.67 53.046.022 72.694.022 96.93s19.648 43.884 43.884 43.884h936.187c24.236 0 43.884-19.648 43.884-43.884s-19.648-43.884-43.884-43.884z" data-tags="align-justify" glyph-name="align-justify" unicode=""/><glyph d="M512 276.561c-94.683 0-171.439 76.755-171.439 171.439S417.316 619.439 512 619.439c94.683 0 171.439-76.755 171.439-171.439 0-94.683-76.755-171.439-171.439-171.439zm0 255.11c-46.211 0-83.671-37.462-83.671-83.671s37.462-83.671 83.671-83.671c46.211 0 83.671 37.462 83.671 83.671 0 46.211-37.462 83.671-83.671 83.671zm3.511-595.648c-71.489.329-129.316 58.359-129.316 129.895 0 .411.001.823.005 1.234v-.063c-.496 11.009-7.26 20.325-16.788 24.505l-.181.07c-3.653 1.718-7.933 2.721-12.448 2.721a29.74 29.74 0 0 1-20.337-8.003l.018.016c-23.441-23.268-55.642-37.739-91.222-38.032h-.056c-.252-.001-.55-.003-.848-.003-35.579 0-67.876 14.051-91.644 36.906l.043-.041c-23.515 23.508-38.058 55.987-38.058 91.864s14.545 68.356 38.058 91.864c5.876 5.37 9.547 13.066 9.547 21.622 0 3.145-.496 6.173-1.414 9.011l.058-.207c-5.723 9.782-16.134 16.274-28.071 16.384h-.015C61.15 316.057 2.876 373.101.611 444.284l-.005.208c.332 71.488 58.36 129.312 129.895 129.312l.618-.001h-.032c11.009.496 20.325 7.26 24.505 16.788l.07.181c1.718 3.653 2.721 7.933 2.721 12.448a29.74 29.74 0 0 1-8.003 20.337l.016-.018c-23.268 23.441-37.739 55.642-38.032 91.222v.056c-.012.671-.019 1.462-.019 2.255 0 35.137 14.077 66.986 36.901 90.213l-.018-.019c23.508 23.515 55.987 38.058 91.864 38.058s68.356-14.545 91.864-38.058a33.805 33.805 0 0 1 23.391-9.35c3.125 0 6.153.422 9.028 1.214l-.239-.056c10.177 5.653 17.174 15.957 18.131 27.962l.008.123v.063c0 71.915 57.154 130.481 128.518 132.752l.208.005c71.237-.66 128.732-58.56 128.732-129.89 0-.413-.001-.826-.005-1.238v.063c.477-11.185 6.924-20.76 16.218-25.665l.166-.08c2.998-1.135 6.465-1.792 10.084-1.792a29.163 29.163 0 0 1 20.35 8.236l-.008-.007c23.441 23.268 55.642 37.739 91.222 38.032h.056c1.163.038 2.53.062 3.903.062 34.624 0 65.95-14.12 88.535-36.914l.01-.01c23.515-23.508 38.058-55.987 38.058-91.864s-14.545-68.356-38.058-91.864a33.762 33.762 0 0 1-8.027-21.916c0-3.667.581-7.197 1.657-10.505l-.067.24c5.653-10.177 15.957-17.174 27.962-18.131l.123-.008c71.192-.937 128.814-57.74 131.062-128.518l.005-.208c-.66-71.237-58.56-128.732-129.89-128.732-.413 0-.826.001-1.238.005h.063c-11.185-.477-20.76-6.924-25.665-16.218l-.08-.166c-1.135-2.998-1.792-6.465-1.792-10.084a29.163 29.163 0 0 1 8.236-20.35l-.007.008c23.268-23.441 37.739-55.642 38.032-91.222v-.056c.012-.671.019-1.462.019-2.255 0-35.137-14.077-66.986-36.901-90.213l.018.019C851.266 65.223 818.787 50.68 782.91 50.68s-68.356 14.545-91.864 38.058a29.15 29.15 0 0 1-20.341 8.23c-3.62 0-7.086-.657-10.287-1.86l.202.066c-9.782-5.723-16.274-16.134-16.384-28.071v-.015c-.937-71.192-57.74-128.814-128.518-131.062l-.208-.005zM356.944 182.357c.372.004.812.007 1.252.007 15.867 0 30.927-3.45 44.471-9.643l-.669.274c41.82-17.762 70.846-58.017 71.967-105.181l.003-.14a39.82 39.82 0 0 1-.004-.62c0-23.297 18.4-42.297 41.461-43.26l.088-.003c23.005 1.873 40.964 21.005 40.964 44.331 0 .254-.003.509-.007.761v-.038c.3 47.575 28.116 88.582 68.322 107.933l.723.313c13.278 5.676 28.727 8.976 44.947 8.976 32.246 0 61.445-13.042 82.611-34.139l-.003.003c7.488-7.488 17.831-12.119 29.255-12.119 22.85 0 41.374 18.524 41.374 41.374 0 11.425-4.631 21.769-12.119 29.255-20.848 21.12-33.725 50.154-33.725 82.193 0 16.378 3.364 31.971 9.44 46.123l-.291-.761c18.745 40.97 59.339 68.943 106.478 69.044h.014c.185-.003.403-.004.621-.004 22.975 0 41.712 18.138 42.674 40.875l.003.088c-1.57 22.953-20.575 40.976-43.788 40.976-.446 0-.889-.007-1.332-.019l.064.001c-47.872 1.343-88.773 29.867-107.929 70.632l-.317.752c-5.566 13.342-8.8 28.841-8.8 45.097 0 32.536 12.954 62.046 33.987 83.655l-.026-.027c7.488 7.488 12.119 17.831 12.119 29.255 0 22.85-18.524 41.374-41.374 41.374-11.425 0-21.769-4.631-29.255-12.119-20.824-19.383-48.841-31.278-79.638-31.278-63.284 0-114.836 50.233-116.956 113.001l-.005.195c.003.185.004.403.004.621 0 22.975-18.138 41.712-40.875 42.674l-.088.003c-22.953-1.57-40.976-20.575-40.976-43.788 0-.446.007-.889.019-1.332l-.001.064c-1.343-47.872-29.867-88.773-70.632-107.929l-.752-.317c-13.342-5.566-28.841-8.8-45.097-8.8-32.536 0-62.046 12.954-83.655 33.987l.027-.026c-7.488 7.488-17.831 12.119-29.255 12.119-22.85 0-41.374-18.524-41.374-41.374 0-11.425 4.631-21.769 12.119-29.255 20.603-21.075 33.316-49.942 33.316-81.777 0-16.537-3.43-32.274-9.617-46.535l.292.757c-17.762-41.82-58.017-70.846-105.181-71.967l-.14-.003a39.82 39.82 0 0 1-.62.004c-23.297 0-42.297-18.4-43.26-41.461l-.003-.088c1.873-23.005 21.005-40.964 44.331-40.964.254 0 .509.003.761.007h-.038c47.575-.3 88.582-28.116 107.933-68.322l.313-.723c5.676-13.278 8.976-28.727 8.976-44.947 0-32.246-13.042-61.445-34.139-82.611l.003.003c-7.488-7.488-12.119-17.831-12.119-29.255 0-22.85 18.524-41.374 41.374-41.374 11.425 0 21.769 4.631 29.255 12.119 21.423 20.481 50.464 33.15 82.462 33.352h.04zm468.094 138.088z" data-tags="cog" glyph-name="cog" unicode=""/><glyph d="M863.086 170.057H746.058c-24.237 0-43.886 19.648-43.886 43.886s19.648 43.886 43.886 43.886h117.028c40.395 0 73.142 32.747 73.142 73.142v234.058c0 40.395-32.747 73.142-73.142 73.142H160.915c-40.395 0-73.142-32.747-73.142-73.142V330.971c0-40.395 32.747-73.142 73.142-73.142h117.028c24.237 0 43.886-19.648 43.886-43.886s-19.648-43.886-43.886-43.886H160.915C72.045 170.057.001 242.101.001 330.971v234.058c0 88.87 72.044 160.914 160.914 160.914h702.171c88.87 0 160.914-72.044 160.914-160.914V330.971c0-88.87-72.044-160.914-160.914-160.914zM746.058 638.172c-24.106.325-43.561 19.78-43.886 43.854v190.203H321.83V682.057c0-24.237-19.648-43.886-43.886-43.886s-43.886 19.648-43.886 43.886v204.8c0 40.395 32.747 73.142 73.142 73.142h409.6c40.395 0 73.142-32.747 73.142-73.142v-204.8c-.325-24.106-19.78-43.561-43.854-43.886h-.032zM716.8-64H307.2c-40.395 0-73.142 32.747-73.142 73.142v409.6c0 40.395 32.747 73.142 73.142 73.142h409.6c40.395 0 73.142-32.747 73.142-73.142V9.142C789.942-31.253 757.195-64 716.8-64zM321.828 23.772H702.17v380.342H321.828z" data-tags="print" glyph-name="print" unicode=""/><glyph d="M632.463-63.971H391.535c-24.813.335-44.839 20.361-45.174 45.141V448L24.12 888.294c-5.688 7.337-9.117 16.671-9.117 26.808a43.782 43.782 0 0 0 5.016 20.414l-.116-.241c7.747 14.706 22.885 24.586 40.34 24.695h903.493c17.471-.11 32.608-9.989 40.236-24.445l.12-.25c3.089-5.86 4.901-12.805 4.901-20.173a43.788 43.788 0 0 0-9.191-26.908l.075.1L677.636 448V-18.797c-.335-24.813-20.361-44.839-45.141-45.174h-.032zM436.711 26.377h150.58v436.892a42.582 42.582 0 0 0 9.105 26.383l-.071-.093 277.067 380.063H150.61l278.271-380.063c5.634-7.174 9.035-16.335 9.035-26.29v-.224.011z" data-tags="filter" glyph-name="filter" unicode=""/><glyph d="M512-63.452c-233.911.333-423.443 189.864-423.774 423.743v.032c0 24.211 19.627 43.839 43.839 43.839s43.839-19.627 43.839-43.839c0-185.621 150.475-336.097 336.097-336.097s336.097 150.475 336.097 336.097c0 185.621-150.475 336.097-336.097 336.097h-146.13c-24.211 0-43.839 19.627-43.839 43.839s19.627 43.839 43.839 43.839h146.13c234.044 0 423.774-189.73 423.774-423.774S746.045-63.45 512.001-63.45zm0 584.516h-.204c-12.039 0-22.929 4.918-30.771 12.856L305.666 709.279c-7.921 7.931-12.821 18.884-12.821 30.979s4.899 23.048 12.821 30.98l175.355 175.355c8.025 8.595 19.423 13.953 32.074 13.953 24.211 0 43.839-19.627 43.839-43.839 0-12.65-5.358-24.048-13.927-32.049l-.026-.023-144.376-144.376 144.376-144.376c7.921-7.931 12.821-18.884 12.821-30.979s-4.899-23.048-12.821-30.98c-7.846-7.942-18.736-12.86-30.775-12.86h-.215.011z" data-tags="replay" glyph-name="replay" unicode=""/><glyph d="M848.457-64c-9.363.189-18.033 2.998-25.352 7.723l.191-.115L512 160.696 200.704-56.392c-6.501-4.018-14.382-6.4-22.821-6.4s-16.32 2.381-23.01 6.509l.189-.108c-13.4 7.013-22.574 20.486-23.401 36.171l-.004.107v819.2c0 88.87 72.044 160.914 160.914 160.914h438.857c88.87 0 160.914-72.044 160.914-160.914V-20.272c0-16.646-9.393-31.099-23.169-38.347l-.237-.114c-5.911-3.304-12.965-5.254-20.477-5.266h-.004zM512 257.828c.137.001.3.003.464.003a43.687 43.687 0 0 0 24.846-7.706l-.148.096L804.573 64.146v734.939c0 40.395-32.747 73.142-73.142 73.142H292.574c-40.395 0-73.142-32.747-73.142-73.142V64.146l267.411 186.075c6.916 4.764 15.475 7.609 24.698 7.609.163 0 .325-.001.488-.003h-.025z" data-tags="bookmark" glyph-name="bookmark" unicode=""/><glyph d="M512 960C229.231 960 0 730.769 0 448S229.231-64 512-64s512 229.231 512 512-229.231 512-512 512zm424.391-469.333H779.378c-21.309 143.377-80.98 269.999-168.128 372.54l.875-1.056c174.421-43.539 304.877-189.937 324.104-369.605l.163-1.879zm-605.867-85.334h362.951C665.411 264.648 601.41 142.036 511.474 43.504l.527.585c-89.411 97.947-153.411 220.56-180.673 356.452l-.803 4.792zm0 85.334c28.064 140.685 92.065 263.297 182.001 361.829l-.527-.585c89.411-97.947 153.411-220.56 180.673-356.452l.803-4.792zm81.352 371.484c-86.273-101.485-145.944-228.107-166.755-367.427l-.499-4.057H87.609c19.389 181.548 149.845 327.945 321.319 370.86l2.948.625zM87.609 407.04h157.013c21.309-143.377 80.98-269.999 168.128-372.54l-.875 1.056C237.938 78.891 107.695 224.492 87.783 403.401l-.175 1.933zM612.124 35.556c86.273 101.485 145.944 228.107 166.755 367.427l.499 4.057h157.013C917.703 224.787 787.032 77.591 615.074 34.475l-2.949-.627z" data-tags="globe" glyph-name="globe" unicode=""/><glyph d="M614.393 448c0-56.549-45.842-102.393-102.393-102.393S409.607 391.449 409.607 448c0 56.549 45.842 102.393 102.393 102.393S614.393 504.551 614.393 448zm0 409.569c0-56.549-45.842-102.393-102.393-102.393s-102.393 45.842-102.393 102.393c0 56.549 45.842 102.393 102.393 102.393s102.393-45.842 102.393-102.393zm0-819.138c0-56.549-45.842-102.393-102.393-102.393S409.607-18.12 409.607 38.431c0 56.549 45.842 102.393 102.393 102.393S614.393 94.982 614.393 38.431z" data-tags="ellipsis-v" glyph-name="ellipsis-v" unicode=""/><glyph d="M614.379 448c0-56.54-45.835-102.379-102.379-102.379S409.621 391.456 409.621 448c0 56.54 45.835 102.379 102.379 102.379S614.379 504.544 614.379 448zm409.507 0c0-56.54-45.835-102.379-102.379-102.379S819.128 391.456 819.128 448c0 56.54 45.835 102.379 102.379 102.379S1023.886 504.544 1023.886 448zm-819.018 0c0-56.54-45.835-102.379-102.379-102.379S.11 391.456.11 448c0 56.54 45.835 102.379 102.379 102.379S204.868 504.544 204.868 448z" data-tags="ellipsis-h" glyph-name="ellipsis-h" unicode=""/><glyph d="M788.756 849.297h-69.189v69.189c0 22.927-18.586 41.514-41.514 41.514s-41.514-18.586-41.514-41.514v-69.189H387.458v69.189c0 22.927-18.586 41.514-41.514 41.514s-41.514-18.586-41.514-41.514v-69.189h-69.189c-84.066 0-152.216-68.15-152.216-152.216V88.217c0-84.066 68.15-152.216 152.216-152.216h553.514c84.066 0 152.216 68.15 152.216 152.216v608.864c0 84.066-68.15 152.216-152.216 152.216zM235.244 766.27h69.189v-69.189c0-22.927 18.586-41.514 41.514-41.514s41.514 18.586 41.514 41.514v69.189h249.081v-69.189c0-22.927 18.586-41.514 41.514-41.514s41.514 18.586 41.514 41.514v69.189h69.189c38.212 0 69.189-30.977 69.189-69.189V544.865H166.057v152.216c0 38.212 30.977 69.189 69.189 69.189zM788.756 19.027H235.242c-38.212 0-69.189 30.977-69.189 69.189v373.622h691.891V88.216c0-38.212-30.977-69.189-69.189-69.189zm-169.375 314.95c-7.448 7.637-17.839 12.375-29.336 12.375s-21.888-4.738-29.328-12.366l-.008-.009-48.71-48.71-48.71 48.71a41.35 41.35 0 0 1-28.301 11.141c-22.927 0-41.514-18.586-41.514-41.514 0-10.949 4.238-20.907 11.165-28.325l-.022.025 48.71-48.71-48.71-48.71c-7.637-7.448-12.375-17.839-12.375-29.336s4.738-21.888 12.366-29.328l.009-.008c7.171-7.515 17.264-12.187 28.45-12.187.311 0 .623.004.933.01l-.047-.001h.193c11.401 0 21.713 4.657 29.139 12.174l48.714 48.714 48.71-48.71c7.43-7.52 17.742-12.178 29.142-12.178h.204-.01c.263-.006.575-.01.886-.01 11.185 0 21.278 4.673 28.435 12.173l.014.016c7.637 7.448 12.375 17.839 12.375 29.336s-4.738 21.888-12.366 29.328l-.009.008-48.71 48.71 48.71 48.71c7.637 7.448 12.375 17.839 12.375 29.336s-4.738 21.888-12.366 29.328l-.009.008z" data-tags="calendar-times" glyph-name="calendar-times" unicode=""/><glyph d="M788.756 849.297h-69.189v69.189c0 22.927-18.586 41.514-41.514 41.514s-41.514-18.586-41.514-41.514v-69.189H387.458v69.189c0 22.927-18.586 41.514-41.514 41.514s-41.514-18.586-41.514-41.514v-69.189h-69.189c-84.066 0-152.216-68.15-152.216-152.216V88.217c0-84.066 68.15-152.216 152.216-152.216h553.514c84.066 0 152.216 68.15 152.216 152.216v608.864c0 84.066-68.15 152.216-152.216 152.216zM235.244 766.27h69.189v-69.189c0-22.927 18.586-41.514 41.514-41.514s41.514 18.586 41.514 41.514v69.189h249.081v-69.189c0-22.927 18.586-41.514 41.514-41.514s41.514 18.586 41.514 41.514v69.189h69.189c38.212 0 69.189-30.977 69.189-69.189V544.865H166.057v152.216c0 38.212 30.977 69.189 69.189 69.189zM788.756 19.027H235.242c-38.212 0-69.189 30.977-69.189 69.189v373.622h691.891V88.216c0-38.212-30.977-69.189-69.189-69.189zM622.702 265.341H401.296c-22.927 0-41.514-18.586-41.514-41.514s18.586-41.514 41.514-41.514h221.406c22.927 0 41.514 18.586 41.514 41.514s-18.586 41.514-41.514 41.514z" data-tags="calendar-minus" glyph-name="calendar-minus" unicode=""/><glyph d="M788.756 849.297h-69.189v69.189c0 22.927-18.586 41.514-41.514 41.514s-41.514-18.586-41.514-41.514v-69.189H387.458v69.189c0 22.927-18.586 41.514-41.514 41.514s-41.514-18.586-41.514-41.514v-69.189h-69.189c-84.066 0-152.216-68.15-152.216-152.216V88.217c0-84.066 68.15-152.216 152.216-152.216h553.514c84.066 0 152.216 68.15 152.216 152.216v608.864c0 84.066-68.15 152.216-152.216 152.216zM235.244 766.27h69.189v-69.189c0-22.927 18.586-41.514 41.514-41.514s41.514 18.586 41.514 41.514v69.189h249.081v-69.189c0-22.927 18.586-41.514 41.514-41.514s41.514 18.586 41.514 41.514v69.189h69.189c38.212 0 69.189-30.977 69.189-69.189V544.865H166.057v152.216c0 38.212 30.977 69.189 69.189 69.189zM788.756 19.027H235.242c-38.212 0-69.189 30.977-69.189 69.189v373.622h691.891V88.216c0-38.212-30.977-69.189-69.189-69.189zM622.702 268.108h-69.189v69.189c0 22.927-18.586 41.514-41.514 41.514s-41.514-18.586-41.514-41.514v-69.189h-69.189c-22.927 0-41.514-18.586-41.514-41.514s18.586-41.514 41.514-41.514h69.189v-69.189c0-22.927 18.586-41.514 41.514-41.514s41.514 18.586 41.514 41.514v69.189h69.189c22.927 0 41.514 18.586 41.514 41.514s-18.586 41.514-41.514 41.514z" data-tags="calendar-plus" glyph-name="calendar-plus" unicode=""/><glyph d="M629.028 170.057H160.914C72.044 170.057 0 242.101 0 330.971v468.114c0 88.87 72.044 160.914 160.914 160.914h468.114c88.87 0 160.914-72.044 160.914-160.914V330.971c0-88.87-72.044-160.914-160.914-160.914zM160.914 872.228c-40.395 0-73.142-32.747-73.142-73.142V330.972c0-40.395 32.747-73.142 73.142-73.142h468.114c40.395 0 73.142 32.747 73.142 73.142v468.114c0 40.395-32.747 73.142-73.142 73.142zM863.086-64H394.972c-88.87 0-160.914 72.044-160.914 160.914v117.028h87.771V96.914c0-40.395 32.747-73.142 73.142-73.142h468.114c40.395 0 73.142 32.747 73.142 73.142v468.114c0 40.395-32.747 73.142-73.142 73.142H746.057v87.771h117.028c88.87 0 160.914-72.044 160.914-160.914V96.913c0-88.87-72.044-160.914-160.914-160.914z" data-tags="clone" glyph-name="clone" unicode=""/><glyph d="M875.959-64H148.042C65.479-60.528-.138 7.248-.138 90.349c0 2.309.051 4.607.151 6.89l-.011-.325v175.543c0 24.237 19.648 43.886 43.886 43.886s43.886-19.648 43.886-43.886V96.914a65.85 65.85 0 0 1-.255-5.881c0-34.276 25.406-62.617 58.412-67.222l.357-.041h729.673c33.364 4.645 58.77 32.987 58.77 67.263a68.91 68.91 0 0 1-.274 6.141l.019-.261v175.543c0 24.237 19.648 43.886 43.886 43.886s43.886-19.648 43.886-43.886V96.913c.091-1.983.143-4.309.143-6.646 0-82.485-64.648-149.87-146.039-154.251l-.389-.016zM512 228.571h-.204c-12.052 0-22.954 4.923-30.804 12.869L246.93 475.502a43.714 43.714 0 0 0-11.778 29.918c0 24.237 19.648 43.886 43.886 43.886 11.575 0 22.102-4.48 29.944-11.803l-.026.023L512 334.482l203.044 203.044a43.714 43.714 0 0 0 29.918 11.778c24.237 0 43.886-19.648 43.886-43.886 0-11.575-4.48-22.102-11.803-29.944l.023.026L543.01 241.442c-7.854-7.95-18.756-12.874-30.808-12.874h-.215.011zm0 0c-24.106.325-43.561 19.78-43.886 43.854v643.688c0 24.237 19.648 43.886 43.886 43.886s43.886-19.648 43.886-43.886V272.456c-.325-24.106-19.78-43.561-43.854-43.886H512z" data-tags="download" glyph-name="download" unicode=""/><glyph d="M907.406 658.043 617.021 948.428c-7.121 7.13-16.959 11.543-27.829 11.553H459.489c-79.752 0-144.404-64.652-144.404-144.404v-65.638h-65.638c-79.752 0-144.404-64.652-144.404-144.404V80.427c0-79.752 64.652-144.404 144.404-144.404h367.575c79.752 0 144.404 64.652 144.404 144.404v65.638h13.128c79.752 0 144.404 64.652 144.404 144.404v341.319a39.296 39.296 0 0 1-11.552 26.254l-.001.001zM630.149 825.552 784.531 671.17H630.149zM682.66 80.425c0-36.251-29.387-65.638-65.638-65.638H249.447c-36.251 0-65.638 29.387-65.638 65.638v525.108c0 36.251 29.387 65.638 65.638 65.638h65.638V290.469c0-79.752 64.652-144.404 144.404-144.404h223.17zm91.893 144.405H459.489c-36.251 0-65.638 29.387-65.638 65.638v525.108c0 36.251 29.387 65.638 65.638 65.638h91.894V631.788c.292-21.632 17.751-39.091 39.355-39.383h249.455V290.469c0-36.251-29.387-65.638-65.638-65.638z" data-tags="copy" glyph-name="copy" unicode=""/><glyph d="m894.081 623.535-323.57 323.57c-7.935 7.944-18.897 12.862-31.009 12.873h-261.55c-88.866 0-160.907-72.041-160.907-160.907V96.931c0-88.866 72.041-160.907 160.907-160.907h468.093c88.866 0 160.907 72.041 160.907 160.907v497.35c-.494 11.473-5.32 21.731-12.872 29.254l-.001.001zM585.139 810.188l172.024-172.024H585.139zM746.047 23.791H277.954c-40.394 0-73.139 32.746-73.139 73.139v702.14c0 40.394 32.746 73.139 73.139 73.139h219.419V594.278c.325-24.105 19.779-43.559 43.852-43.884h277.962V96.928c0-40.394-32.746-73.139-73.139-73.139z" data-tags="file" glyph-name="file" unicode=""/><glyph d="M512 960C229.231 960 0 730.769 0 448S229.231-64 512-64s512 229.231 512 512-229.231 512-512 512zm0-938.667C276.359 21.333 85.333 212.358 85.333 448S276.358 874.667 512 874.667c235.641 0 426.667-191.025 426.667-426.667 0-235.641-191.025-426.667-426.667-426.667zm-130.844 671.29c-33.393-33.448-54.044-79.627-54.044-130.628v-.228.012c0-23.564 19.103-42.667 42.667-42.667s42.667 19.103 42.667 42.667l-.001.525c0 27.345 11.088 52.101 29.015 70.016 18.327 17.443 43.181 28.173 70.543 28.173s52.216-10.731 70.585-28.213l-.043.04c18.449-18.085 29.885-43.264 29.885-71.115 0-54.983-44.572-99.556-99.556-99.556-.307 0-.613.001-.919.004h.047c-23.436-.316-42.351-19.231-42.667-42.636v-56.92c0-23.564 19.103-42.667 42.667-42.667s42.667 19.103 42.667 42.667v19.343c34.751 8.129 64.687 25.311 88.169 48.916l.008.008c33.387 33.532 54.025 79.777 54.025 130.844s-20.64 97.313-54.032 130.851l.007-.007c-34.036 32.508-80.253 52.515-131.144 52.515-50.6 0-96.58-19.779-130.632-52.028l.087.081zm201.955-486.4c0-39.273-31.837-71.111-71.111-71.111s-71.111 31.837-71.111 71.111c0 39.273 31.837 71.111 71.111 71.111s71.111-31.837 71.111-71.111z" data-tags="question-circle" glyph-name="question-circle" unicode=""/><glyph d="M750.032 861.486c-60.88 61-145.05 98.738-238.034 98.738-185.726 0-336.287-150.56-336.287-336.287v-.511.026c0-24.225 19.639-43.864 43.864-43.864s43.864 19.639 43.864 43.864v.584c0 137.598 111.546 249.145 249.145 249.145s249.145-111.546 249.145-249.145c0-137.598-111.546-249.145-249.145-249.145l-.617.001h.032c-24.093-.325-43.539-19.77-43.864-43.832v-117c0-24.225 19.639-43.864 43.864-43.864s43.864 19.639 43.864 43.864v76.031c165.808 22.845 292.141 163.614 292.141 333.889 0 92.678-37.425 176.615-97.988 237.522l.016-.016zM585.105 9.365c0-40.375-32.73-73.105-73.105-73.105s-73.105 32.73-73.105 73.105c0 40.375 32.73 73.105 73.105 73.105s73.105-32.73 73.105-73.105z" data-tags="question" glyph-name="question" unicode=""/><glyph d="M804.571-64H219.428C130.558-64 58.514 8.044 58.514 96.914v702.171c0 88.87 72.044 160.914 160.914 160.914h438.857c12.114-.011 23.078-4.929 31.012-12.872l263.314-265.07c7.945-7.935 12.863-18.898 12.874-31.011V96.913c0-88.87-72.044-160.914-160.914-160.914zM219.429 872.228c-40.395 0-73.142-32.747-73.142-73.142V96.915c0-40.395 32.747-73.142 73.142-73.142h585.143c40.395 0 73.142 32.747 73.142 73.142v537.747L640.146 872.23zM789.943-20.114h-87.771v365.715H321.83V-20.114h-87.771v380.342c0 40.395 32.747 73.142 73.142 73.142h409.6c40.395 0 73.142-32.747 73.142-73.142zM539.501 638.172H308.954c-41.436.331-74.901 33.998-74.901 75.481 0 .207.001.413.003.619v-.032 201.874h87.771V725.942h204.8v190.172h87.771V714.24c.001-.174.003-.381.003-.587 0-41.483-33.464-75.152-74.869-75.481h-.032z" data-tags="save" glyph-name="save" unicode=""/><glyph d="M512-64.445C229.178-64.189.006 165.142.006 448c0 141.396 57.267 269.417 149.871 362.133l-.005-.005c7.661 7.856 18.351 12.73 30.177 12.73s22.516-4.874 30.169-12.72l.008-.009c7.716-7.725 12.49-18.395 12.49-30.177s-4.772-22.451-12.49-30.178C126.499 671.601 74.309 560.57 74.309 437.348c0-235.846 191.191-427.037 427.037-427.037 123.22 0 234.253 52.189 312.196 135.668l.23.248C891.214 223.361 939.133 330.084 939.133 448s-47.919 224.639-125.347 301.759l-.015.015c-7.716 7.725-12.49 18.395-12.49 30.177s4.772 22.451 12.49 30.178c7.661 7.856 18.351 12.73 30.177 12.73s22.516-4.874 30.169-12.72l.008-.009c92.6-92.711 149.866-220.732 149.866-362.128 0-282.858-229.172-512.187-511.97-512.445h-.024zm0 469.741c-23.456.316-42.387 19.247-42.704 42.673v455.537c0 23.584 19.119 42.704 42.704 42.704s42.704-19.119 42.704-42.704V448c-.316-23.456-19.247-42.387-42.673-42.704H512z" data-tags="power-off" glyph-name="power-off" unicode=""/><glyph d="M988.652 537.339 673.337 852.654c-7.357 7.357-17.342 11.562-27.852 11.562H39.029c-21.546 0-39.414-17.868-39.414-39.414V410.689c0-10.51 4.204-20.495 11.562-27.852L326.492 68.048c23.123-23.123 53.604-35.735 86.186-35.735 32.582 0 63.589 12.613 86.186 35.735l11.562 11.562c2.103-4.204 4.204-8.409 7.883-11.562 23.649-23.649 55.18-35.735 86.186-35.735s62.537 12.087 86.712 35.735L988.129 364.97c47.297 47.297 47.297 124.549 0 172.373zM443.681 123.751c-8.409-8.409-18.919-12.613-30.481-12.613s-22.598 4.73-30.481 12.613L78.44 426.979v358.409h358.409l303.753-303.753c16.816-16.816 16.816-44.144 0-60.961L443.68 123.752zm489.265 296.921L636.024 123.75c-16.816-16.816-44.67-16.816-61.486 0-3.679 3.679-7.357 5.78-12.087 7.883l233.333 233.333c47.297 47.823 47.297 125.075 0 172.373L547.736 785.387h80.931L932.42 481.634c16.816-16.816 16.816-44.144 0-60.961zM314.928 631.933c0-36.261-29.429-65.69-65.69-65.69s-65.69 29.429-65.69 65.69 29.429 65.69 65.69 65.69 65.69-29.429 65.69-65.69z" data-tags="tags" glyph-name="tags" unicode=""/><glyph d="M532.53-63.985c-37.212 0-74.423 14.115-102.654 42.345L14.129 393.465C5.147 402.447.014 414.637.014 427.469v484.396c0 26.304 21.814 48.119 48.119 48.119h483.756c12.831 0 25.022-5.132 34.004-14.115L981.64 530.122c55.818-56.46 55.818-148.206 0-204.666L634.542-21.642C606.313-49.871 569.1-63.987 531.888-63.987zM96.253 447.358 497.885 46.367c19.248-18.605 50.044-18.605 68.649 0l347.098 347.098c18.605 18.605 18.605 49.402 0 68.649L512 863.746H96.253V447.999zm851.384-87.897zM287.446 592.357c-44.269 0-80.198 35.928-80.198 80.198s35.928 80.198 80.198 80.198 80.198-35.928 80.198-80.198-35.928-80.198-80.198-80.198z" data-tags="tag" glyph-name="tag" unicode=""/><glyph d="M804.555 550.395h-14.628v131.65c0 153.495-124.432 277.928-277.928 277.928S234.071 835.541 234.071 682.045v-131.65h-14.628c-88.865 0-160.905-72.04-160.905-160.905V96.935c0-88.865 72.04-160.905 160.905-160.905h585.111c88.865 0 160.905 72.04 160.905 160.905V389.49c0 88.865-72.04 160.905-160.905 160.905zm-482.716 131.65c0 105.022 85.138 190.161 190.161 190.161s190.161-85.138 190.161-190.161v-131.65H321.84zM877.694 96.934c0-40.393-32.745-73.138-73.138-73.138H219.445c-40.393 0-73.138 32.745-73.138 73.138v292.555c0 40.393 32.745 73.138 73.138 73.138h585.111c40.393 0 73.138-32.745 73.138-73.138z" data-tags="lock" glyph-name="lock" unicode=""/><glyph d="M804.555 550.395H321.839v131.65c0 105.022 85.138 190.161 190.161 190.161s190.161-85.138 190.161-190.161c0-24.236 19.647-43.883 43.883-43.883s43.883 19.647 43.883 43.883c0 153.495-124.432 277.928-277.928 277.928S234.071 835.541 234.071 682.045v-131.65h-14.628c-88.865 0-160.905-72.04-160.905-160.905V96.935c0-88.865 72.04-160.905 160.905-160.905h585.111c88.865 0 160.905 72.04 160.905 160.905V389.49c0 88.865-72.04 160.905-160.905 160.905zm73.139-453.461c0-40.393-32.745-73.138-73.138-73.138H219.445c-40.393 0-73.138 32.745-73.138 73.138v292.555c0 40.393 32.745 73.138 73.138 73.138h585.111c40.393 0 73.138-32.745 73.138-73.138z" data-tags="unlock" glyph-name="unlock" unicode=""/><glyph d="M862.966-19.954H161.035C72.195-19.954.176 52.065.176 140.905v350.966c0 24.229 19.642 43.871 43.871 43.871s43.871-19.642 43.871-43.871V140.905a67.733 67.733 0 0 1-.021-1.755c0-40.382 32.736-73.117 73.117-73.117h701.952c40.382 0 73.117 32.736 73.117 73.117v350.966c0 24.229 19.642 43.871 43.871 43.871s43.871-19.642 43.871-43.871V139.15c-.991-88.083-72.627-159.104-160.849-159.104h-.011.001zM512 257.893h-.13c-110.716 0-202.222 82.245-216.757 188.973l-.126 1.134H44.047l-.326-.001c-24.229 0-43.871 19.642-43.871 43.871 0 8.677 2.52 16.767 6.867 23.575l-.106-.177 218.184 350.966c17.362 29.96 49.275 49.789 85.818 49.789 1.293 0 2.582-.025 3.862-.074l-.185.005h395.422c40.382-.115 75.22-23.729 91.572-57.882l.265-.613 215.844-347.456c2.498-5.344 3.955-11.604 3.955-18.204 0-23.357-18.253-42.45-41.273-43.795l-.119-.005h-250.94c-14.66-107.862-106.167-190.107-216.883-190.107h-.138.007zM123.014 533.987h213.504c24.229 0 43.871-19.642 43.871-43.871v-12.869c0-72.687 58.925-131.612 131.612-131.612s131.612 58.925 131.612 131.612v12.869c0 24.229 19.642 43.871 43.871 43.871h213.504L725.505 818.269c-4.679 8.189-9.36 11.698-15.208 11.698H314.291a15.795 15.795 0 0 1-13.412-8.109l-.041-.081z" data-tags="inbox" glyph-name="inbox" unicode=""/><glyph d="M570.515 53.029h-409.6C72.045 53.029.001 125.073.001 213.943v468.114c0 88.87 72.044 160.914 160.914 160.914h409.6c88.87 0 160.914-72.044 160.914-160.914V213.943c0-88.87-72.044-160.914-160.914-160.914zM160.914 755.2c-40.395 0-73.142-32.747-73.142-73.142V213.944c0-40.395 32.747-73.142 73.142-73.142h409.6c40.395 0 73.142 32.747 73.142 73.142v468.114c0 40.395-32.747 73.142-73.142 73.142zm819.2-585.143c-8.437.136-16.291 2.51-23.03 6.553l.21-.117-292.571 175.543c-12.706 7.831-21.051 21.663-21.065 37.447v117.029c.014 15.785 8.359 29.619 20.876 37.34l.189.108 292.571 175.543c6.348 3.861 14.026 6.145 22.235 6.145s15.887-2.285 22.428-6.254l-.192.108c13.334-7.666 22.183-21.811 22.235-38.027V213.353c-.053-16.223-8.901-30.368-22.022-37.921l-.213-.112c-5.841-3.327-12.834-5.288-20.285-5.288-.48 0-.959.008-1.435.025l.069-.001zM731.429 414.061l204.8-122.88v313.636l-204.8-122.88z" data-tags="video" glyph-name="video" unicode=""/><glyph d="M853.323-1.925H170.678C76.425-1.925.017 74.483.017 168.736v558.528c0 94.253 76.408 170.661 170.661 170.661h155.278c13.934 0 26.476-5.965 35.211-15.48l.032-.035 171.903-201.07h320.224c94.253 0 170.661-76.408 170.661-170.661l-.001-.655v.033-341.323c0-94.253-76.408-170.661-170.661-170.661zM170.677 804.837c-42.842 0-77.573-34.731-77.573-77.573V168.736c0-42.842 34.731-77.573 77.573-77.573h682.645c42.842 0 77.573 34.731 77.573 77.573v341.323c0 42.842-34.731 77.573-77.573 77.573H511.999c-14.071.131-26.67 6.321-35.33 16.085l-.044.049-171.903 201.07z" data-tags="folder" glyph-name="folder" unicode=""/><glyph d="M82.761 87.994H-.317v609.242c-.01.662-.017 1.442-.017 2.225 0 82.317 66.265 149.157 148.363 150.085l.088.001h133.48c.27.006.588.01.906.01 12.364 0 23.485-5.331 31.186-13.821l.031-.035L461.6 656.806h271.943l.591.001c82.895 0 150.096-67.2 150.096-150.096 0-1.168-.013-2.335-.04-3.497l.003.173v-27.692h-83.078v27.692c.013.495.021 1.077.021 1.662 0 37.318-30.252 67.57-67.57 67.57H441.663c-12.686.029-24.015 5.815-31.514 14.885l-.056.069-147.88 178.895H148.119c-36.362-1.219-65.376-30.988-65.376-67.535 0-.597.008-1.192.023-1.785l-.001.088zm712.813-41.54H41.221c-14.913.126-27.961 7.987-35.343 19.762l-.103.177C2.374 72.284.368 79.351.368 86.886s2.007 14.601 5.513 20.694l-.106-.201 187.203 360.006c7.347 13.219 21.185 22.042 37.092 22.155h752.707c14.913-.126 27.961-7.987 35.343-19.762l.103-.177c3.401-5.891 5.407-12.958 5.407-20.493s-2.007-14.601-5.513-20.694l.106.201L831.02 68.609c-7.071-12.759-20.17-21.423-35.35-22.151l-.097-.004zm-686.228 83.079h661.305l144.002 276.928H253.348z" data-tags="folder-open" glyph-name="folder-open" unicode=""/><glyph d="M1020.3 465.548c-7.019 15.208-167.289 377.277-508.3 377.277h-.472c-34.241 0-67.586-3.836-99.63-11.102l3.004.573c-18.045-5.713-30.896-22.309-30.896-41.908 0-24.228 19.641-43.869 43.869-43.869 2.026 0 4.02.137 5.972.403l-.228-.025c23.536 5.148 50.592 8.127 78.334 8.188h.045c244.499 0 384.881-239.819 419.391-307.086-23.064-44.686-47.534-82.99-75.058-118.824l1.357 1.84c-5.75-7.348-9.221-16.722-9.221-26.907 0-24.18 19.562-43.79 43.724-43.869h.007c13.993.045 26.437 6.635 34.437 16.866l.073.096c34.924 43.997 66.128 93.737 91.55 146.775l2.039 4.721c2.455 5.422 3.887 11.757 3.887 18.425s-1.431 13.003-4.002 18.713l.117-.288zM192.045 829.956a43.694 43.694 0 0 1-29.907 11.773c-24.228 0-43.869-19.641-43.869-43.869 0-11.571 4.479-22.094 11.798-29.933l-.023.026 53.813-53.813C109.158 645.265 48.464 562.481 5.676 469.738l-1.975-4.776C1.498 459.869.216 453.937.216 447.706s1.282-12.161 3.596-17.545l-.111.289c7.019-15.208 167.289-377.277 508.3-377.277a409.67 409.67 0 0 1 2.294-.005c94.711 0 182.793 28.386 256.201 77.116l-1.714-1.069 63.172-63.172c7.936-7.927 18.897-12.83 31.001-12.83s23.064 4.902 31.002 12.83c7.927 7.936 12.83 18.897 12.83 31.001s-4.902 23.064-12.83 31.002zm224.028-350.955 129.268-129.853c-9.942-3.409-21.397-5.378-33.312-5.378-28.107 0-53.656 10.952-72.612 28.824l.052-.049c-18.724 18.468-30.323 44.118-30.323 72.478 0 13.277 2.543 25.962 7.167 37.592l-.241-.688zM512 140.914c-245.083 0-384.881 240.404-419.391 307.086 39.962 79.399 91.284 146.975 152.768 203.701l.481.439 104.701-104.701c-17.797-28.341-28.353-62.795-28.353-99.714 0-104.667 84.849-189.516 189.516-189.516 36.919 0 71.373 10.557 100.508 28.817l-.792-.463 94.173-94.173c-54.756-32.362-120.666-51.482-191.042-51.482-.903 0-1.805.003-2.708.01l.138-.001z" data-tags="eye-slash" glyph-name="eye-slash" unicode=""/><glyph d="M512 53.029c-341.139 0-501.467 362.204-508.489 377.417C1.291 435.631 0 441.666 0 448s1.291 12.369 3.623 17.853l-.112-.299C10.533 480.767 170.862 842.971 512 842.971s501.467-362.204 508.489-377.417c2.22-5.185 3.511-11.22 3.511-17.554s-1.291-12.369-3.623-17.853l.112.299C1013.467 415.233 853.138 53.029 512 53.029zM92.453 448C126.976 380.708 267.996 140.8 512 140.8S897.024 380.708 931.547 448C897.024 515.292 756.004 755.2 512 755.2S126.976 515.292 92.453 448zM512 257.828c-105.028 0-190.172 85.142-190.172 190.172S406.97 638.172 512 638.172c105.028 0 190.172-85.142 190.172-190.172-.332-104.895-85.277-189.84-190.139-190.172h-.032zm0 292.572c-56.554 0-102.4-45.845-102.4-102.4S455.445 345.6 512 345.6c56.554 0 102.4 45.845 102.4 102.4-.331 56.421-45.979 102.07-102.369 102.4h-.032z" data-tags="eye" glyph-name="eye" unicode=""/><glyph d="M967.082 399.241H251.955c-26.929 0-48.759 21.83-48.759 48.759s21.83 48.759 48.759 48.759h715.127c26.929 0 48.759-21.83 48.759-48.759s-21.83-48.759-48.759-48.759zm0 292.552H251.955c-26.929 0-48.759 21.83-48.759 48.759s21.83 48.759 48.759 48.759h715.127c26.929 0 48.759-21.83 48.759-48.759s-21.83-48.759-48.759-48.759zm0-585.104H251.955c-26.929 0-48.759 21.83-48.759 48.759s21.83 48.759 48.759 48.759h715.127c26.929 0 48.759-21.83 48.759-48.759s-21.83-48.759-48.759-48.759zM56.918 675.54a64.842 64.842 0 0 0-25.141 4.706l.436-.155c-8.191 4.021-15.246 8.79-21.551 14.388l.098-.085C-.893 706.14-8.094 722.317-8.094 740.177c0 .133 0 .264.002.396v-.02c.258 17.936 7.392 34.155 18.879 46.185l-.024-.026a60.503 60.503 0 0 0 21.038 13.514l.416.139c7.303 3.084 15.795 4.877 24.704 4.877s17.401-1.792 25.134-5.036l-.428.16c8.326-3.279 15.455-7.903 21.477-13.674l-.023.021c11.461-12.002 18.595-28.224 18.853-46.107v-.05l.002-.376c0-17.859-7.201-34.037-18.859-45.786l.005.005a94.822 94.822 0 0 0-20.899-14.055l-.555-.248c-7.082-2.883-15.3-4.556-23.909-4.556-.28 0-.559.002-.84.005h.043zm0-292.552c-8.949.111-17.424 2.014-25.124 5.363l.419-.163c-8.262 3.501-15.357 8.097-21.513 13.706l.059-.053C-.894 413.587-8.095 429.764-8.095 447.624c0 .133 0 .264.002.396V448c.258 17.936 7.392 34.155 18.879 46.185l-.024-.026a74.687 74.687 0 0 0 20.966 13.467l.488.186c8.019 3.808 17.424 6.032 27.348 6.032 3.658 0 7.245-.302 10.739-.882l-.379.052 11.702-3.901 11.702-5.851a102.946 102.946 0 0 0 9.837-7.878l-.085.076c11.672-12.226 18.854-28.826 18.854-47.102 0-.125 0-.251-.002-.376v.02c0-35.905-29.107-65.012-65.012-65.012zm0-292.552a64.842 64.842 0 0 0-25.141 4.706l.436-.155c-8.191 4.021-15.246 8.79-21.551 14.388l.098-.085a74.687 74.687 0 0 0-13.467 20.966l-.186.488c-3.296 7.27-5.216 15.763-5.216 24.704s1.92 17.436 5.371 25.089l-.155-.385c3.501 8.262 8.097 15.357 13.706 21.513l-.053-.059c11.733 11.582 27.863 18.736 45.663 18.736 9.098 0 17.76-1.87 25.624-5.245l-.424.162c8.326-3.279 15.455-7.903 21.477-13.674l-.023.021a74.687 74.687 0 0 0 13.467-20.966l.186-.488c3.296-7.27 5.216-15.763 5.216-24.704s-1.92-17.436-5.371-25.089l.155.385c-3.501-8.262-8.097-15.357-13.706-21.513l.053.059C91.331 97.637 75.154 90.436 57.294 90.436c-.133 0-.264 0-.396.002h.02z" data-tags="list" glyph-name="list" unicode=""/><glyph d="m512-62.599-.378-.001a37.915 37.915 0 0 0-22.364 7.254l.11-.076C472.808-44.934 84.202 216.161 84.202 533.56c0 236.266 191.533 427.799 427.799 427.799S939.8 769.826 939.8 533.56c0-317.399-386.399-578.495-405.166-588.982-6.17-4.487-13.897-7.178-22.254-7.178-.133 0-.265.001-.397.003h.021zm0 938.398-1.107.001c-189.346 0-342.951-153.026-343.891-342.151v-.089c0-232.392 264.407-444.91 344.999-503.975C592.592 88.648 857 301.168 857 533.56c-.939 189.216-154.544 342.241-343.891 342.241-.389 0-.779-.001-1.168-.003h.061zm0-469.199c-83.836 0-151.799 67.963-151.799 151.799S428.164 710.198 512 710.198c83.836 0 151.799-67.963 151.799-151.799 0-83.836-67.963-151.799-151.799-151.799zm0 220.8c-38.107 0-68.999-30.892-68.999-68.999s30.892-68.999 68.999-68.999 68.999 30.892 68.999 68.999S550.107 627.4 512 627.4z" data-tags="map-marker" glyph-name="map-marker" unicode=""/><glyph d="M863.086 901.486H160.915C72.045 901.486.001 829.442.001 740.572V155.429c0-88.87 72.044-160.914 160.914-160.914h702.171c88.87 0 160.914 72.044 160.914 160.914v585.143c0 88.87-72.044 160.914-160.914 160.914zm73.142-160.915V491.886H555.886v321.829h307.2c40.395 0 73.142-32.747 73.142-73.142zm-775.314 73.144h307.2V491.886H87.772v248.685c0 40.395 32.747 73.142 73.142 73.142zM87.772 155.429v248.685h380.342V82.285h-307.2c-40.395 0-73.142 32.747-73.142 73.142zm775.314-73.144h-307.2v321.829h380.342V155.429c0-40.395-32.747-73.142-73.142-73.142z" data-tags="table" glyph-name="table" unicode=""/><glyph d="M746.049 959.981c-153.498 0-277.933-124.435-277.933-277.933V550.396H160.927C72.06 550.396.019 478.355.019 389.488V96.928C.019 8.061 72.06-63.98 160.927-63.98h409.585c88.867 0 160.908 72.041 160.908 160.908v292.56c0 88.867-72.041 160.908-160.908 160.908h-14.628v131.652c0 105.024 85.139 190.165 190.165 190.165s190.165-85.139 190.165-190.165c0-24.236 19.648-43.884 43.884-43.884s43.884 19.648 43.884 43.884c0 153.498-124.435 277.933-277.933 277.933zM643.652 389.487V96.927c0-40.394-32.746-73.14-73.14-73.14H160.927c-40.394 0-73.14 32.746-73.14 73.14v292.56c0 40.394 32.746 73.14 73.14 73.14h409.585c40.394 0 73.14-32.746 73.14-73.14z" data-tags="lock-open" glyph-name="lock-open" unicode=""/><glyph d="M512-63.977c-24.105.325-43.559 19.779-43.884 43.852v936.219c0 24.236 19.648 43.884 43.884 43.884s43.884-19.648 43.884-43.884V-20.093c-.325-24.105-19.779-43.559-43.852-43.884H512zm87.768 117.023H219.443c-24.236 0-43.884 19.648-43.884 43.884s19.648 43.884 43.884 43.884h380.325c3.954-.373 8.548-.587 13.193-.587 76.308 0 139.186 57.511 147.651 131.554l.063.684c-8.529 74.727-71.406 132.238-147.714 132.238-4.645 0-9.24-.213-13.775-.629l.583.044H424.234c-4.502-.309-9.759-.484-15.056-.484-124.284 0-225.944 96.875-233.585 219.234l-.033.671c7.676 123.029 109.334 219.903 233.619 219.903 5.298 0 10.553-.176 15.762-.522l-.706.037H746.05c24.236 0 43.884-19.648 43.884-43.884s-19.648-43.884-43.884-43.884H424.235c-3.954.373-8.548.587-13.193.587-76.308 0-139.186-57.511-147.651-131.554l-.063-.684c8.529-74.727 71.406-132.238 147.714-132.238 4.645 0 9.24.213 13.775.629l-.583-.044h175.535c4.502.309 9.759.484 15.056.484 124.284 0 225.944-96.875 233.585-219.234l.033-.671C840.767 149.435 739.109 52.561 614.824 52.561c-5.298 0-10.553.176-15.762.522l.706-.037z" data-tags="dollar" glyph-name="dollar" unicode=""/><glyph d="M863.086 23.772H160.915C72.045 23.772.001 95.816.001 184.686v351.086c0 88.87 72.044 160.914 160.914 160.914h35.109l69.047 102.4c29.412 43.303 78.425 71.379 133.997 71.387h225.866c55.573-.008 104.587-28.085 133.636-70.825l.361-.562 69.047-102.4h35.109c88.87 0 160.914-72.044 160.914-160.914V184.686c0-88.87-72.044-160.914-160.914-160.914zM160.914 608.914c-40.395 0-73.142-32.747-73.142-73.142V184.686c0-40.395 32.747-73.142 73.142-73.142h702.171c40.395 0 73.142 32.747 73.142 73.142v351.086c0 40.395-32.747 73.142-73.142 73.142H804.57c-15.035.029-28.294 7.614-36.181 19.159l-.097.151-80.75 123.466c-12.764 19.278-34.075 32.011-58.402 32.765l-.111.003H399.068c-24.44-.758-45.751-13.489-58.346-32.499l-.167-.269-84.846-123.466c-7.986-11.696-21.243-19.281-36.274-19.31h-.004zM512 199.315c-105.028 0-190.172 85.142-190.172 190.172S406.97 579.659 512 579.659c105.028 0 190.172-85.142 190.172-190.172-.332-104.895-85.277-189.84-190.139-190.172h-.032zm0 292.571c-56.554 0-102.4-45.845-102.4-102.4s45.845-102.4 102.4-102.4c56.554 0 102.4 45.845 102.4 102.4-.331 56.421-45.979 102.07-102.369 102.4h-.032z" data-tags="camera" glyph-name="camera" unicode=""/><glyph d="M46.545-64C20.978-63.655.344-43.021 0-17.488v930.943C0 939.161 20.839 960 46.545 960s46.545-20.839 46.545-46.545V-17.454c-.345-25.567-20.979-46.201-46.512-46.545h-.033zm930.91 0H46.546C20.84-64 .001-43.161.001-17.455S20.84 29.09 46.546 29.09h930.909c25.706 0 46.545-20.839 46.545-46.545S1003.161-64 977.455-64zM263.757 153.212c-25.567.345-46.201 20.979-46.545 46.512V448c0 25.706 20.839 46.545 46.545 46.545s46.545-20.839 46.545-46.545V199.757c-.345-25.567-20.979-46.201-46.512-46.545h-.033zm217.213 0c-25.567.345-46.201 20.979-46.545 46.512v496.518c0 25.706 20.839 46.545 46.545 46.545s46.545-20.839 46.545-46.545V199.758c-.345-25.567-20.979-46.201-46.512-46.545h-.033zm217.212 0c-25.567.345-46.201 20.979-46.545 46.512V448c0 25.706 20.839 46.545 46.545 46.545s46.545-20.839 46.545-46.545V199.757c-.345-25.567-20.979-46.201-46.512-46.545h-.033zm217.211 0c-25.567.345-46.201 20.979-46.545 46.512v496.518c0 25.706 20.839 46.545 46.545 46.545s46.545-20.839 46.545-46.545V199.758c-.345-25.567-20.979-46.201-46.512-46.545h-.033z" data-tags="chart-bar" glyph-name="chart-bar" unicode=""/><glyph d="M590.766 566.149H433.234c-50.632.297-91.598 41.261-91.894 91.866v157.56c.297 50.632 41.261 91.598 91.866 91.894h157.56c50.632-.297 91.598-41.261 91.894-91.866v-157.56c-.297-50.632-41.261-91.598-91.866-91.894h-.028zM433.234 828.702c-7.25 0-13.128-5.878-13.128-13.128V658.042c0-7.25 5.878-13.128 13.128-13.128h157.532c7.25 0 13.128 5.878 13.128 13.128v157.532c0 7.25-5.878 13.128-13.128 13.128zM196.936 41.042H91.915C41.283 41.339.317 82.303.021 132.908v105.049c.297 50.632 41.261 91.598 91.866 91.894h105.049c50.632-.297 91.598-41.261 91.894-91.866V132.936c-.297-50.632-41.261-91.598-91.866-91.894h-.028zM91.915 251.085c-7.25 0-13.128-5.878-13.128-13.128V132.936c0-7.25 5.878-13.128 13.128-13.128h105.021c7.25 0 13.128 5.878 13.128 13.128v105.021c0 7.25-5.878 13.128-13.128 13.128zM564.511 41.042H459.49c-50.632.297-91.598 41.261-91.894 91.866v105.049c.297 50.632 41.261 91.598 91.866 91.894h105.049c50.632-.297 91.598-41.261 91.894-91.866V132.936c-.297-50.632-41.261-91.598-91.866-91.894h-.028zM459.489 251.085c-7.25 0-13.128-5.878-13.128-13.128V132.936c0-7.25 5.878-13.128 13.128-13.128H564.51c7.25 0 13.128 5.878 13.128 13.128v105.021c0 7.25-5.878 13.128-13.128 13.128zM932.085 41.042H827.064c-50.632.297-91.598 41.261-91.894 91.866v105.049c.297 50.632 41.261 91.598 91.866 91.894h105.049c50.632-.297 91.598-41.261 91.894-91.866V132.936c-.297-50.632-41.261-91.598-91.866-91.894h-.028zM827.064 251.085c-7.25 0-13.128-5.878-13.128-13.128V132.936c0-7.25 5.878-13.128 13.128-13.128h105.021c7.25 0 13.128 5.878 13.128 13.128v105.021c0 7.25-5.878 13.128-13.128 13.128zm52.511 0c-21.632.292-39.091 17.751-39.383 39.355v105.049c0 7.25-5.878 13.128-13.128 13.128H196.935c-7.25 0-13.128-5.878-13.128-13.128V290.468c0-21.751-17.633-39.383-39.383-39.383s-39.383 17.633-39.383 39.383v105.021c.297 50.632 41.261 91.598 91.866 91.894h630.157c50.632-.297 91.598-41.261 91.894-91.866V290.468c-.292-21.632-17.751-39.091-39.355-39.383h-.028zm-367.575 0c-21.632.292-39.091 17.751-39.383 39.355v315.093c0 21.751 17.633 39.383 39.383 39.383s39.383-17.633 39.383-39.383V290.469c-.292-21.632-17.751-39.091-39.355-39.383H512z" data-tags="sitemap" glyph-name="sitemap" unicode=""/></font>
</defs>
</svg>
